Торрент файл
скачать торрент магнет ссылка Добавлен: 27 сен 2012, 12:56
Размер: 1.37 ГБ
Сидеров: 116
Личеров: 18
Автор

СообщениеДобавлено: 27 сен 2012, 12:56 

В сети
Супермодератор
Аватара пользователя
Дата регистрации:
15 фев 2012, 16:44
Возраст: 28
Спасибо: 6593 / 2145
Сообщения: 44165


Фантоцци берет реванш / Fantozzi alla riscossa


Год выхода: 1990
Жанр: Комедия
Режиссер: Нери Паренти
В ролях: Паоло Вилладжио, Милена Вукотич, Джиджи Редер, Анна Маццамауро, Плинио Фернандо, Пол Маллер

О фильме:
Фантоцци, всю жизнь работавшего бухгалтером, избирают мировым судьей. За свою честность он попадает в тюрьму, где берет уроки у господина Хулигана и становится одним из самых уважаемых и влиятельных людей. Но судьба опять уготовила ему злую шутку…




Страна: Италия
Продолжительность: 01:22:19
Перевод: Профессиональный многоголосый (закадровый)

Файл
Кодек: Xvid
Качество: DVDRip
Видео: 656x384, ~2176 Кбит/с, 25 fps
Звук: MP3, 2 ch, 192 Кбит/с
Субтитры: Нет

Семпл



General
Complete name : F:Fantocci.beret.revansh.1990.XviD.DVDRip.BestVideo.avi
Format : AVI
Format/Info : Audio Video Interleave
File size : 1.37 GiB
Duration : 1h 22mn
Overall bit rate : 2 377 Kbps
Writing application : FairUse Wizard - http://fairusewizard.com
Writing library : The best and REALLY easy backup tool

Video
ID : 0
Format : MPEG-4 Visual
Format profile : Advanced Simple@L5
Format settings, BVOP : 1
Format settings, QPel : No
Format settings, GMC : No warppoints
Format settings, Matrix : Default (MPEG)
Muxing mode : Packed bitstream
Codec ID : XVID
Codec ID/Hint : XviD
Duration : 1h 22mn
Bit rate : 2 176 Kbps
Width : 656 pixels
Height : 384 pixels
Display aspect ratio : 1.708
Frame rate : 25.000 fps
Color space : YUV
Chroma subsampling : 4:2:0
Bit depth : 8 bits
Scan type : Progressive
Compression mode : Lossy
Bits/(Pixel*Frame) : 0.346
Stream size : 1.25 GiB (92%)
Writing library : XviD 1.2.0.dev47 (UTC 2006-11-01)

Audio
ID : 1
Format : MPEG Audio
Format version : Version 1
Format profile : Layer 3
Mode : Joint stereo
Mode extension : MS Stereo
Codec ID : 55
Codec ID/Hint : MP3
Duration : 1h 22mn
Bit rate mode : Constant
Bit rate : 192 Kbps
Channel(s) : 2 channels
Sampling rate : 48.0 KHz
Compression mode : Lossy
Stream size : 113 MiB (8%)
Alignment : Aligned on interleaves
Interleave, duration : 40 ms (1.00 video frame)
Interleave, preload duration : 504 ms




реклама партнёра


Вернуться к началу
 Профиль Отправить личное сообщение  
 
   Похожие торренты   Автор   Торрент   Размер 
В этой теме нет новых непрочитанных сообщений. Фантоцци берет реванш / Fantozzi alla riscossa [Комедия, 1990] DVDRip-AVC, Mvo

salma3

105 | 27

3.34 ГБ

В этой теме нет новых непрочитанных сообщений. Фантоцци / Fantozzi [Комедия, 1975] DVDRip-AVC, Mvo

salma3

188 | 40

3.54 ГБ

В этой теме нет новых непрочитанных сообщений. Фантоцци в раю / Fantozzi in paradiso [Комедия, 1993] DVDRip-AVC, Mvo

salma3

124 | 26

3.07 ГБ

В этой теме нет новых непрочитанных сообщений. Возвращение Фантоцци / Fantozzi - Il ritorno [Комедия, 1996] DVDRip-AVC, Mvo

salma3

61 | 10

3.1 ГБ

В этой теме нет новых непрочитанных сообщений. Фантоцци уходит на пенсию / Fantozzi va in pensione [Комедия, 1988] DVDRip-AVC, Mvo

salma3

113 | 69

3.64 ГБ

В этой теме нет новых непрочитанных сообщений. У Фантоцци опять неприятности / Fantozzi subisce ancora [Комедия, 1983] DVDRip-AVC, Mvo

salma3

109 | 53

3.4 ГБ

В этой теме нет новых непрочитанных сообщений. Второй трагический Фантоцци / Il secondo tragico Fantozzi [Комедия, 1976] DVDRip-AVC, Mvo

salma3

138 | 31

3.68 ГБ


Начать новую тему Ответить на тему  [ 1 сообщение ] 




Для Мосгорсуда, Роскомнадзора и рекламодателей:: mosgorsud-torrent[собачка]yandex.ru