Торрент файл
скачать торрент магнет ссылка Добавлен: 26 сен 2012, 23:18
Размер: 1.37 ГБ
Сидеров: 57
Личеров: 6
Автор

СообщениеДобавлено: 26 сен 2012, 23:18 

Не в сети
Супермодератор
Аватара пользователя
Дата регистрации:
15 фев 2012, 16:44
Возраст: 27
Спасибо: 5130 / 2089
Сообщения: 17371

Информация о фильме
Название: Фантоцци против всех
Оригинальное название:  Fantozzi contro tutti
Год выхода: 1980
Жанр:Комедия
Режиссер: Нери Паренти, Паоло Вилладжо
В ролях: Паоло Вилладжио, Милена Вукотич, Джиджи Редер, Камилло Милли, Пол Мюллер, Плинио Фернандо, Гуэррино Кривелло, Анджело Пеллегрино, Пьетро Дзардини, Диего Абатантуоно, Джузеппе Анатрелли

О фильме: Третий фильм о злоключениях бухгалтера Уго Фантоцци. К унижениям на работе, опять добавляются личные проблемы. Ночи, проведенные перед телевизором в поисках какого-нибудь эротического фильма... Забавная слежка за женой, увлеченной брутальным булочником. Существование туповатого Фантоцци - настоящая одиссея грустных, и в тоже время, необычайно смешных событий.




Выпущено:  Италия / Maura Film s.r.l.
Продолжительность: 01:33:34
Перевод: Профессиональный многоголосный
 

Файл
Качество: DVDRip
Видео: XviD, ~1894 Кбит/с, 720x400, 25fps
Аудио: AC3, 2ch, 192 Кбит/с

http://multi-up.com/765671  
     


General
Complete name : F:Fantoci protiv vseh.1980.XviD.DVDRip.avi
Format : AVI
Format/Info : Audio Video Interleave
File size : 1.37 GiB
Duration : 1h 33mn
Overall bit rate : 2 092 Kbps
Writing application : VirtualDubMod 1.5.4.1 (build 2178/release)
Writing library : VirtualDubMod build 2178/release

Video
ID : 0
Format : MPEG-4 Visual
Format profile : Advanced Simple@L5
Format settings, BVOP : 1
Format settings, QPel : No
Format settings, GMC : No warppoints
Format settings, Matrix : Custom
Codec ID : XVID
Codec ID/Hint : XviD
Duration : 1h 33mn
Bit rate : 1 894 Kbps
Width : 720 pixels
Height : 400 pixels
Display aspect ratio : 16:9
Frame rate : 25.000 fps
Color space : YUV
Chroma subsampling : 4:2:0
Bit depth : 8 bits
Scan type : Progressive
Compression mode : Lossy
Bits/(Pixel*Frame) : 0.263
Stream size : 1.24 GiB (90%)
Writing library : XviD 1.1.2 (UTC 2006-11-01)

Audio
ID : 1
Format : AC-3
Format/Info : Audio Coding 3
Mode extension : CM (complete main)
Format settings, Endianness : Big
Codec ID : 2000
Duration : 1h 33mn
Bit rate mode : Constant
Bit rate : 192 Kbps
Channel(s) : 2 channels
Channel positions : Front: L R
Sampling rate : 48.0 KHz
Bit depth : 16 bits
Compression mode : Lossy
Stream size : 128 MiB (9%)
Alignment : Split accross interleaves
Interleave, duration : 96 ms (2.40 video frames)
Interleave, preload duration : 96 ms
Language : Russian




реклама партнёра


Вернуться к началу
 Профиль Отправить личное сообщение  
 
   Похожие торренты   Автор   Торрент   Размер 
В этой теме нет новых непрочитанных сообщений. Тото против Черного пирата / Totò contro il pirata nero [Комедия, 1964] DVDRip, Dvo

salma3

36 | 4

1.46 ГБ

В этой теме нет новых непрочитанных сообщений. Женщины против мужчин / Femmine contro maschi [Комедия, 2011] HDTVRip 1080p, Dvo

salma3

71 | 5

4.93 ГБ

В этой теме нет новых непрочитанных сообщений. Самсон против пиратов / Sansone contro i pirati [приключения, исторический, 1963] DVDRip, Avo

salma3

45 | 7

1.46 ГБ

В этой теме нет новых непрочитанных сообщений. Все сыновья крестной матери / Tutti figli di Mammasantissima [комедия, криминал, 1973] DVDRip, Avo

salma3

13 | 2

1.37 ГБ

В этой теме нет новых непрочитанных сообщений. Скупой / L'avare [комедия, 1980] DVDRip, Dub+Mvo [НТВ]

salma3

38 | 14

1.47 ГБ

В этой теме нет новых непрочитанных сообщений. Дружба и вражда / Yari Dushmani [Боевик, комедия, драма, 1980] DVDRip, Avo

salma3

2 | 7

2.05 ГБ

В этой теме нет новых непрочитанных сообщений. Эркюль и Шерлок против мафии / Hercule et Sherlock [Комедия, 1996] DVDRip, Mvo

salma3

0 | 5

1.43 ГБ


Начать новую тему Ответить на тему  [ 1 сообщение ] 




Для Мосгорсуда, Роскомнадзора и рекламодателей:: mosgorsud-torrent[собачка]yandex.ru