Торрент файл
скачать торрент магнет ссылка Добавлен: 26 сен 2012, 23:14
Размер: 1.37 ГБ
Сидеров: 194
Личеров: 17
Статус: (salma3)
Автор

СообщениеДобавлено: 26 сен 2012, 23:14 

Не в сети
Супермодератор
Аватара пользователя
Дата регистрации:
15 фев 2012, 16:44
Возраст: 27
Спасибо: 5121 / 2089
Сообщения: 17282

Информация о фильме
Название: У Фантоцци опять неприятности
Оригинальное название: Fantozzi subisce ancora
Год выхода: 1983
Жанр: комедия
Режиссер: Нери Паренти
В ролях: Паоло Вилладжио, Антонио Аллокка, Эннио Антонелли, Стефано Антонуччи, Уго Болонья, Карло Коломбо, Клара Колосимо, Джулио Фарнезе, Плинио Фернандо

О фильме:
Четвертый фильм из культовой трагикомической серии про самого нелепого и самого близкого нам героя - несчастного бухгалтера Фантоцци, на голову которого сыпятся все мыслимые и немыслимые неприятности. Один из тех фильмов, которые были на ура приняты в советском прокате, потому что были так близки и дороги сердцу каждого советского служащего.



Страна: Италия
Студия: Maura International Films
Продолжительность: 01:23:47
Перевод: Профессиональный многоголосый (закадровый)

Файл
Кодек: Xvid
Качество: DVDRip
Видео: 704x384, ~2138 Кбит/с, 25 fps
Звук: AC3, 2ch, 192 Кбит/с
Субтитры: Нет

Семпл



General
Complete name : В:U.Fantocci.opyatj.nepriyatnosti.1983.XviD.DVDRip.avi
Format : AVI
Format/Info : Audio Video Interleave
File size : 1.37 GiB
Duration : 1h 23mn
Overall bit rate : 2 337 Kbps
Writing application : VirtualDubMod 1.5.4.1 (build 2178/release)
Writing library : VirtualDubMod build 2178/release

Video
ID : 0
Format : MPEG-4 Visual
Format profile : Advanced Simple@L5
Format settings, BVOP : 1
Format settings, QPel : No
Format settings, GMC : No warppoints
Format settings, Matrix : Custom
Codec ID : XVID
Codec ID/Hint : XviD
Duration : 1h 23mn
Bit rate : 2 138 Kbps
Width : 704 pixels
Height : 384 pixels
Display aspect ratio : 1.85:1
Frame rate : 25.000 fps
Color space : YUV
Chroma subsampling : 4:2:0
Bit depth : 8 bits
Scan type : Progressive
Compression mode : Lossy
Bits/(Pixel*Frame) : 0.316
Stream size : 1.25 GiB (91%)
Writing library : XviD 1.2.0.dev47 (UTC 2006-11-01)

Audio
ID : 1
Format : AC-3
Format/Info : Audio Coding 3
Mode extension : CM (complete main)
Format settings, Endianness : Big
Codec ID : 2000
Duration : 1h 23mn
Bit rate mode : Constant
Bit rate : 192 Kbps
Channel(s) : 2 channels
Channel positions : Front: L R
Sampling rate : 48.0 KHz
Bit depth : 16 bits
Compression mode : Lossy
Stream size : 115 MiB (8%)
Alignment : Split accross interleaves
Interleave, duration : 96 ms (2.40 video frames)
Interleave, preload duration : 96 ms
Language : Russian





реклама партнёра


Вернуться к началу
 Профиль Отправить личное сообщение  
 
   Похожие торренты   Автор   Торрент   Размер 
В этой теме нет новых непрочитанных сообщений. Я, опять я и снова я / Me Myself I [мелодрама, комедия, 1999] DVDRip, Mvo

salma3

40 | 2

1.47 ГБ

В этой теме нет новых непрочитанных сообщений. Опять и снова / Once and Again [S01-03] [Драма, мелодрама, семейный, 1999-2002] DVDRip, HDTVRip, Mvo [FOX Life]

salma3

0 | 3

24.75 ГБ

В этой теме нет новых непрочитанных сообщений. Сплошные неприятности / Nothing But Trouble [комедия, 1991] WEB-DLRip, Dub+Avo

salma3

69 | 1

1.46 ГБ

В этой теме нет новых непрочитанных сообщений. Сплошные неприятности с двойником / Didi - Der Doppelgänger [комедия, 1984] BDRip, Mvo

salma3

130 | 45

1.48 ГБ

В этой теме нет новых непрочитанных сообщений. Двойные неприятности / Double Trouble [боевик, триллер, комедия, криминал, 1992] HDTVRip, Dvo [НТВ+]

salma3

36 | 6

1.37 ГБ

В этой теме нет новых непрочитанных сообщений. Двойные неприятности / Double Trouble / Bao Dao Shuang Xiong [боевик, мелодрама, комедия, 2012] WEB-DLRip, Dvo

salma3

19 | 4

747.04 МБ

В этой теме нет новых непрочитанных сообщений. Я люблю неприятности / I Love Trouble [Боевик, мелодрама, комедия, 1994] BDRip 720p, Dub+2Mvo+Dvo+3Avo+Sub

salma3

17 | 4

7.37 ГБ


Начать новую тему Ответить на тему  [ 1 сообщение ] 




Для Мосгорсуда, Роскомнадзора и рекламодателей:: mosgorsud-torrent[собачка]yandex.ru