Торрент файл
скачать торрент магнет ссылка Добавлен: 25 сен 2012, 01:56
Размер: 720.34 МБ
Сидеров: 10
Личеров: 4
Автор

СообщениеДобавлено: 25 сен 2012, 01:56 

Не в сети
Супермодератор
Аватара пользователя
Дата регистрации:
15 фев 2012, 16:44
Возраст: 27
Спасибо: 5139 / 2089
Сообщения: 17411
Конвой / Convoy


Перевод: Профессиональный (полное дублирование) Киностудия им. Горького
Cубтитры:Отсутствуют
Формат: DVDRip, AVI, XviD, MP3
Страна: США
Режиссер: Сэм Пекинпа
Жанр: комедия, боевик
Продолжительность: 01:28:36
Год выпуска: 1978
В ролях: Крис Кристофферсон, Эли МакГрау, Берт Янг, Мэдж Синклэр, Фрэнклин Аджаи, Брайан Дэвис, Сеймур Кэссел, Кэсси Йэтс, Уолтер Келли, Эрнест Бурнайн
Описание: Мощный конвой грузовиков, вздымающих тучи пыли, движется к границе штата юго-западной части Америки.
Массивную коллекцию машин всех размеров и очертаний ведет «Резиновый утенок», легендарный водитель-дальнобойщик, который собрал армию единомышленников, протестуя против полицейской коррупции, государственных законов и теневой политики.



Видео: 720x304 (2.37:1), 25 fps, XviD build 64 ~998 kbps avg, 0.18 bit/pixel
Аудио: 44.100 kHz, MPEG Layer 3, 1 ch, ~128.00 kbps avg
General
Complete name: D:\Фильмы\Релизы\convoy_[tfile.ru].avi
Format: AVI
Format/Info: Audio Video Interleave
File size: 720 MiB
Duration: 1h 28mn
Overall bit rate mode: Variable
Overall bit rate: 1 137 Kbps
Writing application: VirtualDubMod 1.5.10.2 (build 2540/release)
Writing library: VirtualDubMod build 2540/release
Video
ID: 0
Format: MPEG-4 Visual
Format profile: Advanced Simple@L5
Format settings, BVOP: No
Format settings, QPel: No
Format settings, GMC: 3 warppoints
Format settings, Matrix: Default (H.263)
Codec ID: XVID
Codec ID/Hint: XviD
Duration: 1h 28mn
Bit rate: 999 Kbps
Width: 720 pixels
Height: 304 pixels
Display aspect ratio: 2.35:1
Frame rate: 25.000 fps
Color space: YUV
Chroma subsampling: 4:2:0
Bit depth: 8 bits
Scan type: Progressive
Compression mode: Lossy
Bits/(Pixel*Frame): 0.183
Stream size: 633 MiB (88%)
Writing library: XviD 64
Audio
ID: 1
Format: MPEG Audio
Format version: Version 1
Format profile: Layer 3
Codec ID: 55
Codec ID/Hint: MP3
Duration: 1h 28mn
Bit rate mode: Variable
Bit rate: 128 Kbps
Channel(s): 1 channel
Sampling rate: 44.1 KHz
Compression mode: Lossy
Delay relative to video: 4s 600ms
Stream size: 81.1 MiB (11%)
Alignment: Split accross interleaves
Interleave, duration: 40 ms (1.00 video frame)
Interleave, preload duration: 500 ms
Writing library: LAMEЂ













реклама партнёра


Вернуться к началу
 Профиль Отправить личное сообщение  
 
   Похожие торренты   Автор   Торрент   Размер 
В этой теме нет новых непрочитанных сообщений. Конвой под прицелом / Caught in the Headlights [Боевик, триллер, 2004] DVDRip, Dvo+Mvo

salma3

176 | 16

1.45 ГБ

В этой теме нет новых непрочитанных сообщений. Нежный полицейский / Tendre poulet [боевик, триллер, комедия, экранизация, 1978] BDRip AVC, Mvo

salma3

68 | 4

2.61 ГБ

В этой теме нет новых непрочитанных сообщений. Они называли его Бульдозер / Lo chiamavano Bulldozer [Комедия, боевик, спорт, 1978] BDRip 1080p, Avo

salma3

32 | 10

8.11 ГБ

В этой теме нет новых непрочитанных сообщений. Астральное кунг-фу / Spiritual Kung Fu / Quan jing [боевик, комедия, 1978] BDRip. Mvo

salma3

28 | 5

1.45 ГБ

В этой теме нет новых непрочитанных сообщений. Духовное кунг-фу / Spiritual Kung Fu [боевик, 1978] DVDRip, Mvo

salma3

0 | 2

1.37 ГБ

В этой теме нет новых непрочитанных сообщений. Пьяный мастер / Drunken Master / Jui Kuen [Боевик, комедия, 1978] BDRip 1080p, Mvo+2Dvo+Avo+Sub

salma3

42 | 4

9.93 ГБ

В этой теме нет новых непрочитанных сообщений. Нежный полицейский / Tendre poulet [боевик, триллер, комедия, экранизация, 1978] BDRip 1080p, Mvo

salma3

17 | 2

14.7 ГБ


Начать новую тему Ответить на тему  [ 1 сообщение ] 




Для Мосгорсуда, Роскомнадзора и рекламодателей:: mosgorsud-torrent[собачка]yandex.ru