Торрент файл
скачать торрент магнет ссылка Добавлен: 23 сен 2012, 22:12
Размер: 1.46 ГБ
Сидеров: 11
Личеров: 3
Автор

СообщениеДобавлено: 23 сен 2012, 22:12 

Не в сети
Супермодератор
Аватара пользователя
Дата регистрации:
15 фев 2012, 16:44
Возраст: 27
Спасибо: 5139 / 2090
Сообщения: 17432
Год выпуска: 1996
Страна: США
Киностудия: Caravan Pictures, Walt Disney Pictures
Жанр:Комедия
Продолжительность: 01:36:41

Перевод: Профессиональный (многоголосый закадровый)
Субтитры: нет
Оригинальная дорожка: нет

Режиссер: Дэвид Микки Эванс / David M. Evans

В ролях: Синбад /Sinbad/, Робер Гийом, Тимоти Басфилд /Timothy Busfield/, Брок Пирс /Brock Pierce/, Джеймс Нотон /James Naughton/, Арт Ла Флер /Art La Fleur/, Зэкери Тай Брайан /Zachery Ty Bryan/, Билл Коббс /Bill Cobbs/, Лиза Аайкхорн, Блэйк Бойд, Эрин Уиллиби, Майкл Крэуик, Фон Рид, Томас Арана /Tomas Arana/

Описание: Чернокожий телохранитель Сэм Симмс получает сверх важное задание. он назначен ответственным за жизнь первого ребенка страны — сына президента. Большой, нелепый, но добродушнейший охранник, обожающий «неуставные» цветастые галстуки, и с виду заносчивый, но несчастный из-за своего одиночества мальчишка мало-помалу становятся друзьями. Сэм учит сына президента боксировать и помогает ему завести друзей среди ровесников…





Тип релиза: DVDRip
Контейнер: AVI

Видео: 704x384 (16:9), 25.0 fps, XviD MPEG-4 ~1955 kbps avg, 0.289 bit/pixel
Аудио: 48 kHz, АС3, 2 ch, 192.00 kbps Constant

Общее
Полное имя: Pervyj.rebenok.strany.1996.1,45.avi
Формат: AVI
Формат/Информация: Audio Video Interleave
Размер файла: 1,46 Гбайт
Продолжительность: 1 ч. 36 м.
Общий поток: 2156 Кбит/сек
Программа кодирования: VirtualDubModRus 1.5.10.2 (build 2542/release)
Библиотека кодирования: VirtualDubMod build 2542/release

Видео
Идентификатор: 0
Формат: MPEG-4 Visual
Профиль формата: Advanced Simple@L5
Параметр BVOP формата: 1
Параметр QPel формата: Нет
Параметр GMC формата: Без точки перехода
Параметр матрицы формата: Выборочная
Идентификатор кодека: XVID
Идентификатор кодека/Подсказка: XviD
Продолжительность: 1 ч. 36 м.
Битрейт: 1955 Кбит/сек
Ширина: 704 пикселя
Высота: 384 пикселя
Соотношение сторон: 16:9
Частота кадров: 25,000 кадров/сек
Цветовое пространство: YUV
Субдискретизация насыщенности: 4:2:0
Битовая глубина: 8 бит
Тип развёртки: Прогрессивная
Метод сжатия: С потерями
Бит/(Пиксели*Кадры): 0.289
Размер потока: 1,32 Гбайт (91%)
Библиотека кодирования: XviD 1.2.1 (UTC 2008-12-04)

Аудио
Идентификатор: 1
Формат: AC-3
Формат/Информация: Audio Coding 3
Расширение режима: CM (complete main)
Идентификатор кодека: 2000
Продолжительность: 1 ч. 36 м.
Вид битрейта: Постоянный
Битрейт: 192 Кбит/сек
Каналы: 2 канала
Расположение каналов: Front: L R
Частота: 48,0 КГц
Битовая глубина: 16 бит
Метод сжатия: С потерями
Размер потока: 133 Мбайт (9%)
Выравнивание: Разделение по промежуткам
Продолжительность промежутка: 40мс. (1,00 видеокадр)
Время предзагрузки промежутка: 500мс.




Раздача от:




реклама партнёра


Вернуться к началу
 Профиль Отправить личное сообщение  
 
   Похожие торренты   Автор   Торрент   Размер 
В этой теме нет новых непрочитанных сообщений. Первый удар / First Strike [боевик, триллер, комедия, 1996] DVDRip, Mvo

salma3

67 | 5

1.37 ГБ

В этой теме нет новых непрочитанных сообщений. Девчонка - сорванец / Tomboy [комедия, 1985] BDRip-AVC, Avo

salma3

41 | 8

2.02 ГБ

В этой теме нет новых непрочитанных сообщений. Девчонка - сорванец / Tomboy [комедия, 1985] BDRip 720p, Avo

salma3

19 | 6

3.54 ГБ

В этой теме нет новых непрочитанных сообщений. Первый удар / First Strike [Боевик, триллер, комедия, приключения, 1996] BDRip 1080p, Mvo

salma3

63 | 7

8.19 ГБ

В этой теме нет новых непрочитанных сообщений. У нее будет ребенок / She's Having a Baby [мелодрама, комедия, 1988] DVDRip, Dvo

salma3

12 | 3

1.45 ГБ

В этой теме нет новых непрочитанных сообщений. Девчонка-сорванец / Garçon manqué (Давид Дельрие / David Delrieux) [2008г., драма, DVDRip] AVO

Alfredovich

0 | 2

1.37 ГБ

В этой теме нет новых непрочитанных сообщений. Трудный Ребенок: Трилогия / Problem Child: Trilogy (Дэннис Дуган,Брайан Левант,Грег Биман) [1990-1995, Комедия, Семейный, DVDRip]

marya111

0 | 0

4.27 ГБ


Начать новую тему Ответить на тему  [ 1 сообщение ] 




Для Мосгорсуда, Роскомнадзора и рекламодателей:: mosgorsud-torrent[собачка]yandex.ru