Торрент файл
скачать торрент магнет ссылка Добавлен: 22 сен 2012, 10:44
Размер: 2.19 ГБ
Сидеров: 17
Личеров: 4
Автор

СообщениеДобавлено: 22 сен 2012, 10:44 

Не в сети
Зам. Админа
Аватара пользователя
Дата регистрации:
02 дек 2010, 12:39
Спасибо: 12560 / 214
Сообщения: 28075

Год выхода: 2012
Жанр:Боевик, триллер
Режиссер: Мабрук Эль Мекри
В ролях: Генри Кавилл, Сигурни Уивер, Вероника Эчеги, Рошди Зем, Джозеф Моул, Оскар Хаенада, Кэролайн Гудолл, Брюс Уиллис, Рафи Гаврон, Эмма Хэмилтон, Джим Пиддок, Майкл Бадд, Джо Диксон, Ферми Рейксач, Лоло Херреро, Александр Амарал, Палома Блойд, Симон Андреу, Морган Джонсон, Андреа Рос, Карлос Мартинез, Хосе Алиас, Сильвия Сабате, Колм Мини, Лаура Байонас, Дэвид Хернандез Силва, Хавьер Пинто, Паула Сольдевила

Сюжет фильма: Испания, море, яхта — отпуск с поднадоевшей молодому Уиллу Шоу компанией родственников… Никто не мог предположить, что уже через несколько часов палуба яхты обагрится кровью, а члены семьи Шоу станут заложниками в руках неизвестных. В поисках родных Уилл невольно узнает о государственном заговоре и раскрывает тайны своего отца. У парня всего несколько часов, чтобы спасти семью и страну от гибели.

Продолжительность: 01:33:33
Перевод: Профессиональный (полное дублирование) [Лицензия]
Выпущено: США, Galavis Film, Fria Luz Del Dia, A.I.E., Picture Machine, Summit Entertainment

Качество: BDRip [720p]
Видео: 1280x544, 2963 Кбит/сек, 24,000 кадр/сек, AVC, x264, 2,35:1, 0.177 Бит/[Пиксели*Кадры], 2pass
Аудио: AC-3, 384 Кбит/сек, 6 канала(ов), 48,0 КГц
Размер: 2,19 ГБ

Бюджет Фильма: -
Кассовые сборы: $16 731 851

Релиз от:








Общее
Уникальный идентификатор: 175197803874214036185232831563933993797 (0x83CDDEA282D99253B5F3D5B7908CCB45)
Полное имя: E:ЗагрузкиThe.Cold.Light.of.Day.2012.x264.BDRip.720p.DUB.mkv
Формат: Matroska
Версия формата: Version 2
Размер файла: 2,19 Гбайт
Продолжительность: 1 ч. 33 м.
Общий поток: 3348 Кбит/сек
Дата кодирования: UTC 2012-09-21 18:14:28
Программа кодирования: mkvmerge v5.5.0 ('Healer') built on Apr6 2012 21:43:24
Библиотека кодирования: libebml v1.2.3 + libmatroska v1.3.0

Видео
Идентификатор: 1
Формат: AVC
Формат/Информация: Advanced Video Codec
Профиль формата: High@L3.1
Параметр CABAC формата: Да
Параметр ReFrames формата: 4 кадра
Идентификатор кодека: V_MPEG4/ISO/AVC
Продолжительность: 1 ч. 33 м.
Битрейт: 2963 Кбит/сек
Ширина: 1280 пикселей
Высота: 544 пикселя
Соотношение сторон: 2,35:1
Соотношение сторон в оригинале: 2,35:1
Частота кадров: 24,000 кадра/сек
Цветовое пространство: YUV
Субдискретизация насыщенности: 4:2:0
Битовая глубина: 8 бит
Тип развёртки: Прогрессивная
Бит/(Пиксели*Кадры): 0.177
Размер потока: 1,89 Гбайт (87%)
Заголовок: Средь бела дня
Библиотека кодирования: x264 core 128 r2216 198a7ea
Настройки программы: cabac=1 / ref=3 / deblock=1:0:0 / analyse=0x3:0x133 / me=hex / subme=7 / psy=1 / psy_rd=1.00:0.00 / mixed_ref=1 / me_range=16 / chroma_me=1 / trellis=1 / 8x8dct=1 / cqm=0 / deadzone=21,11 / fast_pskip=1 / chroma_qp_offset=-2 / threads=12 / lookahead_threads=2 / sliced_threads=0 / nr=0 / decimate=1 / interlaced=0 / bluray_compat=0 / constrained_intra=0 / bframes=3 / b_pyramid=2 / b_adapt=1 / b_bias=0 / direct=1 / weightb=1 / open_gop=0 / weightp=2 / keyint=240 / keyint_min=24 / scenecut=40 / intra_refresh=0 / rc_lookahead=40 / rc=2pass / mbtree=1 / bitrate=2963 / ratetol=1.0 / qcomp=0.60 / qpmin=0 / qpmax=69 / qpstep=4 / cplxblur=20.0 / qblur=0.5 / ip_ratio=1.40 / aq=1:1.00
Язык: English
Default: Да
Forced: Нет

Аудио
Идентификатор: 2
Формат: AC-3
Формат/Информация: Audio Coding 3
Расширение режима: CM (complete main)
Идентификатор кодека: A_AC3
Продолжительность: 1 ч. 33 м.
Вид битрейта: Постоянный
Битрейт: 384 Кбит/сек
Каналы: 6 каналов
Расположение каналов: Front: L C R, Side: L R, LFE
Частота: 48,0 КГц
Битовая глубина: 16 бит
Метод сжатия: С потерями
Размер потока: 257 Мбайт (11%)
Заголовок: Дублированный
Язык: Russian
Default: Да
Forced: Нет




реклама партнёра


Вернуться к началу
 Профиль  
 
   Похожие торренты   Автор   Торрент   Размер 
В этой теме нет новых непрочитанных сообщений. Холод в июле / Cold in July [триллер, криминал, 2014] BDRip 720p, Dub+Sub [лицензия]

Dracon

2 | 2

5.76 ГБ

В этой теме нет новых непрочитанных сообщений. Бела Кисс (Киш): Пролог / Bela Kiss: Prologue [ужасы, триллер, детектив, 2013] BDRip 720p, dvo

Dracon

36 | 6

3.69 ГБ

В этой теме нет новых непрочитанных сообщений. Холод в июле / Cold in July [триллер, криминал, 2014] BDRip 1080p, Dub+Sub [лицензия]

Dracon

14 | 2

9.74 ГБ

В этой теме нет новых непрочитанных сообщений. 7 ящиков / 7 cajas / 7 Boxes (Хуан Карлос Манеглиа, Тана Шембори) [2012, боевик, триллер, BDRip 720p | Лицензия] mvo

Nickolas3435

154 | 12

4.09 ГБ

В этой теме нет новых непрочитанных сообщений. Свет в океане / The Light Between Oceans [Драма, мелодрама, 2016] BDRip 720p, Dub+Sub [Лицензия]

salma3

126 | 75

9.42 ГБ

В этой теме нет новых непрочитанных сообщений. Невозмутимый / Холодный как камень / Без эмоций / Stone Cold [Боевик, драма, криминал, 1991] BDRip 720p, Dvo+Avo+Sub

salma3

13 | 3

4.27 ГБ

В этой теме нет новых непрочитанных сообщений. Джо / Joe [боевик, триллер, драма, криминал, 2013] BDRip 720p, Mvo+Sub [лицензия]

Dracon

674 | 31

5.83 ГБ


Начать новую тему Ответить на тему  [ 1 сообщение ] 




Для Мосгорсуда, Роскомнадзора и рекламодателей:: mosgorsud-torrent[собачка]yandex.ru