Торрент файл
скачать торрент магнет ссылка Добавлен: 21 сен 2012, 21:00
Размер: 2.9 ГБ
Сидеров: 2
Личеров: 4
Автор

СообщениеДобавлено: 21 сен 2012, 21:00 

Не в сети
Зам. Админа
Аватара пользователя
Дата регистрации:
02 дек 2010, 12:39
Спасибо: 12461 / 214
Сообщения: 27968

Год выхода: 2012
Жанр: фэнтези, боевик, драма, приключения
Режиссер: Руперт Сандерс
В ролях: Кристен Стюарт, Крис Хемсворт, Шарлиз Терон, Сэм Клафлин, Сэм Спруэлл, Иэн МакШейн, Боб Хоскинс, Рэй Уинстон, Ник Фрост, Эдди Марсан

О фильме:
Тьма приближается. Она прячется в лесах, спускается с гор, застилает небо. Никто не укроется от магического зеркала Королевы, живущей в неприступном замке, охраняемом бесчисленной армией. Но над Белоснежкой злые чары не властны. И тогда Королева отправляет Охотника, чтобы он принес ей сердце соперницы. Но очарованный Белоснежкой, он встает на ее сторону. Грядет великая битва. Лишь одна будет править.
Страна: США
Продолжительность: 02:11:34
Перевод: Профессиональный (полное дублирование) [Лицензия]

Качество: BDRip-AVC
Видео: AVC / High@L4.1 / 1034x440 / 2 389 Kbps / 2.35:1
Аудио #1: (Dolby AC3, 6 ch) 384 Кбит/сек, 48,0 КГц | Russian |
Аудио #2: (Dolby AC3, 6 ch) 384 Кбит/сек, 48,0 КГц | English |
Субтитры: русские, английские

Семпл


Общее
Уникальный идентификатор: 254234962337381880616500323790298284493 (0xBF43DF6873E776EE9E595B6CB50801CD)
Полное имя: F:RG25KADRBelosnezhka.i.oxothik.2012.BDRip.x264.ac3.RG.25.Kadr[by.L][Extended].mkv
Формат: Matroska
Версия формата: Version 2
Размер файла: 2,90 Гбайт
Продолжительность: 2 ч. 11 м.
Общий поток: 3159 Кбит/сек
Название фильма: Snow White and the Huntsman 2012 [Extended] | RG 25 Kadr by L [unionpeer]
Дата кодирования: UTC 2012-09-21 14:10:19
Программа кодирования: mkvmerge v3.2.0 ('Beginnings') built on Feb 12 2010 16:46:17
Библиотека кодирования: libebml v0.7.9 + libmatroska v0.8.1

Видео
Идентификатор: 1
Формат: AVC
Формат/Информация: Advanced Video Codec
Профиль формата: High@L4.1
Параметр CABAC формата: Да
Параметр ReFrames формата: 11 кадров
Идентификатор кодека: V_MPEG4/ISO/AVC
Продолжительность: 2 ч. 11 м.
Битрейт: 2389 Кбит/сек
Ширина: 1034 пикселя
Высота: 440 пикселей
Соотношение сторон: 2,35:1
Частота кадров: 23,976 кадра/сек
Цветовое пространство: YUV
Субдискретизация насыщенности: 4:2:0
Битовая глубина: 8 бит
Тип развёртки: Прогрессивная
Бит/(Пиксели*Кадры): 0.219
Размер потока: 2,14 Гбайт (74%)
Библиотека кодирования: x264 core 125 r2200 999b753
Настройки программы: cabac=1 / ref=11 / deblock=1:-2:-1 / analyse=0x3:0x133 / me=umh / subme=11 / psy=1 / psy_rd=1.10:0.05 / mixed_ref=1 / me_range=24 / chroma_me=1 / trellis=2 / 8x8dct=1 / cqm=0 / deadzone=21,11 / fast_pskip=0 / chroma_qp_offset=-3 / threads=6 / lookahead_threads=1 / sliced_threads=0 / nr=0 / decimate=1 / interlaced=0 / bluray_compat=0 / constrained_intra=0 / bframes=8 / b_pyramid=2 / b_adapt=2 / b_bias=0 / direct=3 / weightb=1 / open_gop=0 / weightp=2 / keyint=240 / keyint_min=22 / scenecut=40 / intra_refresh=0 / rc=2pass / mbtree=0 / bitrate=2389 / ratetol=1.0 / qcomp=0.70 / qpmin=10 / qpmax=61 / qpstep=4 / cplxblur=20.0 / qblur=0.5 / ip_ratio=1.40 / pb_ratio=1.30 / aq=1:0.70
Язык: English
Default: Нет
Forced: Нет

Аудио #1
Идентификатор: 2
Формат: AC-3
Формат/Информация: Audio Coding 3
Расширение режима: CM (complete main)
Идентификатор кодека: A_AC3
Продолжительность: 2 ч. 11 м.
Вид битрейта: Постоянный
Битрейт: 384 Кбит/сек
Каналы: 6 каналов
Расположение каналов: Front: L C R, Side: L R, LFE
Частота: 48,0 КГц
Битовая глубина: 16 бит
Метод сжатия: С потерями
Размер потока: 361 Мбайт (12%)
Заголовок: Дубляж
Язык: Russian
Default: Да
Forced: Нет

Аудио #2
Идентификатор: 3
Формат: AC-3
Формат/Информация: Audio Coding 3
Расширение режима: CM (complete main)
Идентификатор кодека: A_AC3
Продолжительность: 2 ч. 11 м.
Вид битрейта: Постоянный
Битрейт: 384 Кбит/сек
Каналы: 6 каналов
Расположение каналов: Front: L C R, Side: L R, LFE
Частота: 48,0 КГц
Битовая глубина: 16 бит
Метод сжатия: С потерями
Размер потока: 361 Мбайт (12%)
Заголовок: Оригинал
Язык: English
Default: Нет
Forced: Нет

Текст #1
Идентификатор: 4
Формат: UTF-8
Идентификатор кодека: S_TEXT/UTF8
Идентификатор кодека/Информация: UTF-8 Plain Text
Заголовок: Полные, Voronine
Язык: Russian
Default: Да
Forced: Нет

Текст #2
Идентификатор: 5
Формат: UTF-8
Идентификатор кодека: S_TEXT/UTF8
Идентификатор кодека/Информация: UTF-8 Plain Text
Заголовок: Форсированные, Voronine
Язык: Russian
Default: Нет
Forced: Нет

Текст #3
Идентификатор: 6
Формат: UTF-8
Идентификатор кодека: S_TEXT/UTF8
Идентификатор кодека/Информация: UTF-8 Plain Text
Язык: English
Default: Нет
Forced: Нет

Меню
00:00:00.000: en:00:00:00.000
00:05:05.055: en:00:05:05.055
00:10:26.793: en:00:10:26.793
00:19:48.854: en:00:19:48.854
00:27:46.456: en:00:27:46.456
00:32:40.458: en:00:32:40.458
00:38:04.490: en:00:38:04.490
00:44:02.098: en:00:44:02.098
00:51:08.649: en:00:51:08.649
00:58:17.869: en:00:58:17.869
01:02:08.558: en:01:02:08.558
01:08:57.967: en:01:08:57.967
01:13:36.537: en:01:13:36.537
01:16:59.073: en:01:16:59.073
01:26:57.003: en:01:26:57.003
01:36:30.993: en:01:36:30.993
01:43:37.795: en:01:43:37.795
01:49:51.460: en:01:49:51.460
01:53:44.734: en:01:53:44.734
02:01:50.094: en:02:01:50.094


Релиз от:




реклама партнёра


Вернуться к началу
 Профиль  
 
   Похожие торренты   Автор   Торрент   Размер 
В этой теме нет новых непрочитанных сообщений. Белоснежка и Охотник 2 / The Huntsman Winter's War (Фэнтези, боевик, драма, приключения, 2016) BDRip-AVC от ExKinoRay | Театральная версия | Лицензия

marya111

31 | 8

2.32 ГБ

В этой теме нет новых непрочитанных сообщений. Белоснежка и Охотник 2 / The Huntsman: Winter's War [фэнтези, боевик, драма, приключения, 2016] WEBRip, Dub [Line]

salma3

15357 | 1075

1.46 ГБ

В этой теме нет новых непрочитанных сообщений. Белоснежка и Охотник 2 / The Huntsman Winter's War 2 [Фэнтези, боевик, драма, приключения, 2016] WEBRip 720p, Dub [Line]

salma3

1193 | 96

3.31 ГБ

В этой теме нет новых непрочитанных сообщений. Блудная дочь / Snow White and the Huntsman, What Just Happened (Руперт Сандерс, Сержио Фальконе) [пародия, фэнтэзи, альтернативный перевод, 2015] HDRip, mvo

Dracon

1045 | 45

1.57 ГБ

В этой теме нет новых непрочитанных сообщений. Последний охотник на ведьм / The Last Witch Hunter [фэнтези, боевик, приключения, 2015] BDRip, Avo [Гаврилов]

salma3

108 | 7

1.46 ГБ

В этой теме нет новых непрочитанных сообщений. Последний охотник на ведьм / The Last Witch Hunter [фэнтези, боевик, приключения, 2015] BDRip 1080p, Dub [iTunes]

Dracon

468 | 44

7.94 ГБ

В этой теме нет новых непрочитанных сообщений. Последний охотник на ведьм / The Last Witch Hunter [фэнтези, боевик, приключения, 2015] BDRip 720p, Dub [iTunes]

Dracon

190 | 15

5.75 ГБ


Начать новую тему Ответить на тему  [ 1 сообщение ] 




Для Мосгорсуда, Роскомнадзора и рекламодателей:: mosgorsud-torrent[собачка]yandex.ru