Торрент файл
скачать торрент магнет ссылка Добавлен: 20 сен 2012, 11:31
Размер: 1.45 ГБ
Сидеров: 9
Личеров: 5
Статус: (drink)
Автор

СообщениеДобавлено: 20 сен 2012, 11:31 

Не в сети
Супермодератор
Аватара пользователя
Дата регистрации:
15 фев 2012, 16:44
Возраст: 27
Спасибо: 5132 / 2089
Сообщения: 17376
Скорость падения / Terminal Velocity






Год выхода: 1994
Жанр: боевик, триллер, детектив
Режиссер: Деран Сарафян
В ролях: Чарли Шин, Настасья Кински, Джеймс Гандольфини, Кристофер МакДональд, Гари Баллок, Ганс Хоус, Мелвин Ван Пиблз, Сули МакКалло, Катрин Де Прюм, Ричард Сарафьян мл.

О фильме:
Броди — бесстрашный инструктор по парашютному спорту. Его новая очаровательная ученица быстро постигает азы этой опасной науки. Но во время первого совместного прыжка она погибает. Однако Броди не узнает в погибшей свою подопечную… Пытаясь найти разгадку, он оказывается в эпицентре дерзкого преступления: русские террористы, бывшие агенты КГБ, похищают самолет с золотом. И тогда судьба снова сводит его с бывшей ученицей…



Страна: США, Канада
Продолжительность: 01:41:54
Перевод: Многоголосый закадровый (1 канал), Двухголосый закадровый (FDV), Авторский одноголосый закадровый (А. Гаврилов)

Файл
Кодек: XviD
Качество: BDRip
Видео: 720x304 (2.37:1), 23.976 fps, 1250 kbps, 0.238 bit/pixel
Аудио#1: 48 kHz, AC3 2.0, 192.00 kbps (1 канал)
Аудио#2: 48 kHz, AC3 5.1, 384.00 kbps (FDV)
Аудио#3: 48 kHz, AC3 2.0, 192.00 kbps (А. Гаврилов)



Общее
Полное имя : D:Terminal Velocity.1994.BDRip.avi
Формат : AVI
Формат/Информация : Audio Video Interleave
Размер файла : 1,45 Гбайт
Продолжительность : 1 ч. 41 м.
Общий поток : 2036 Кбит/сек
Название фильма : Скорость падения / Terminal Velocity (1994) BDRip
Программа кодирования : VirtualDubModRus 1.5.10.2 (build 2542/release)
Библиотека кодирования : VirtualDubMod build 2542/release
Правообладатель : rip by Rulya74

Видео
Идентификатор : 0
Формат : MPEG-4 Visual
Профиль формата : Advanced Simple@L5
Параметр BVOP формата : 2
Параметр QPel формата : Нет
Параметр GMC формата : Без точки перехода
Параметр матрицы формата : Default (H.263)
Идентификатор кодека : XVID
Идентификатор кодека/Подсказка : XviD
Продолжительность : 1 ч. 41 м.
Битрейт : 1250 Кбит/сек
Ширина : 720 пикселей
Высота : 304 пикселя
Соотношение сторон : 2,35:1
Частота кадров : 23,976 кадра/сек
Цветовое пространство : YUV
Субдискретизация насыщенности : 4:2:0
Битовая глубина : 8 бит
Тип развёртки : Прогрессивная
Метод сжатия : С потерями
Бит/(Пиксели*Кадры) : 0.238
Размер потока : 911 Мбайт (61%)
Библиотека кодирования : XviD 65

Аудио #1
Идентификатор : 1
Формат : AC-3
Формат/Информация : Audio Coding 3
Расширение режима : CM (complete main)
Идентификатор кодека : 2000
Продолжительность : 1 ч. 41 м.
Вид битрейта : Постоянный
Битрейт : 192 Кбит/сек
Каналы : 2 канала
Расположение каналов : Front: L R
Частота : 48,0 КГц
Битовая глубина : 16 бит
Метод сжатия : С потерями
Размер потока : 140 Мбайт (9%)
Выравнивание : Разделение по промежуткам
Продолжительность промежутка : 42 мс. (1,00 видеокадр)
Время предзагрузки промежутка : 500 мс.
Заголовок : Многоголосый закадровый (1 канал)

Аудио #2
Идентификатор : 2
Формат : AC-3
Формат/Информация : Audio Coding 3
Расширение режима : CM (complete main)
Идентификатор кодека : 2000
Продолжительность : 1 ч. 41 м.
Вид битрейта : Постоянный
Битрейт : 384 Кбит/сек
Каналы : 6 каналов
Расположение каналов : Front: L C R, Side: L R, LFE
Частота : 48,0 КГц
Битовая глубина : 16 бит
Метод сжатия : С потерями
Размер потока : 280 Мбайт (19%)
Выравнивание : Разделение по промежуткам
Продолжительность промежутка : 42 мс. (1,00 видеокадр)
Время предзагрузки промежутка : 500 мс.
Заголовок : Двухголосый закадровый (FDV)

Аудио #3
Идентификатор : 3
Формат : AC-3
Формат/Информация : Audio Coding 3
Расширение режима : CM (complete main)
Идентификатор кодека : 2000
Продолжительность : 1 ч. 41 м.
Вид битрейта : Постоянный
Битрейт : 192 Кбит/сек
Каналы : 2 канала
Расположение каналов : Front: L R
Частота : 48,0 КГц
Битовая глубина : 16 бит
Метод сжатия : С потерями
Размер потока : 140 Мбайт (9%)
Выравнивание : Разделение по промежуткам
Продолжительность промежутка : 42 мс. (1,00 видеокадр)
Время предзагрузки промежутка : 500 мс.
Заголовок : Авторский закадровый (А. Гаврилов)





реклама партнёра


Вернуться к началу
 Профиль Отправить личное сообщение  
 
   Похожие торренты   Автор   Торрент   Размер 
В этой теме нет новых непрочитанных сообщений. Скорость / Speed [боевик, триллер, 1994] HDRip, Mvo

salma3

70 | 6

1.45 ГБ

В этой теме нет новых непрочитанных сообщений. Скорость Гари / Скоростной Гари / The Velocity of Gary [драма, мелодрама, 1998] DVDRip, Avo

salma3

2 | 1

1.49 ГБ

В этой теме нет новых непрочитанных сообщений. Скорость: Автобус 657 / Heist (Скотт Манн) [боевик, триллер, 2015] BDRip 1080p, Dub [iTunes]

Dracon

896 | 21

6.81 ГБ

В этой теме нет новых непрочитанных сообщений. Скорость: Автобус 657 / Heist (Скотт Манн) [боевик, триллер, 2015] BDRip 720p, Dub [iTunes]

Dracon

82 | 10

4.62 ГБ

В этой теме нет новых непрочитанных сообщений. Скорость 2: Контроль над круизом / Speed 2: Cruise Control [Боевик, триллер, мелодрама, 1997] BDRip 720p, Mvo+Sub

salma3

23 | 5

7.83 ГБ

В этой теме нет новых непрочитанных сообщений. Скорость 2: Контроль над круизом / Speed 2: Cruise Control [Боевик, триллер, мелодрама, 1997] BDRip 720p, Dub+Sub

salma3

38 | 11

3.56 ГБ

В этой теме нет новых непрочитанных сообщений. Скорость 2: Контроль над круизом / Speed 2: Cruise Control [Боевик, триллер, мелодрама, криминал, 1997] BDRip 1080p, Mvo+Sub

salma3

8 | 6

16.22 ГБ


Начать новую тему Ответить на тему  [ 1 сообщение ] 




Для Мосгорсуда, Роскомнадзора и рекламодателей:: mosgorsud-torrent[собачка]yandex.ru