Торрент файл
скачать торрент магнет ссылка Добавлен: 19 сен 2012, 16:27
Размер: 1.36 ГБ
Сидеров: 5
Личеров: 3
Статус: (Dracon)
Автор

СообщениеДобавлено: 19 сен 2012, 16:27 

Не в сети
Супермодератор
Аватара пользователя
Дата регистрации:
15 фев 2012, 16:44
Возраст: 27
Спасибо: 5130 / 2089
Сообщения: 17350
Мозговой штурм / Brainstorm




Год выхода: 1983
Жанр: фантастика, триллер
Режиссер: Дуглас Трамбалл
В ролях: Кристофер Уокен, Натали Вуд, Луиза Флетчер, Клифф Робертсон, Джордан Кристофер, Дональд Хоттон, Алан Фьюдж, Джо Дорси, Билл Мори, Джейсон Ливли

О фильме:
Представьте себе машину, которая сможет легко загружать кому-либо мысли и переживания другого человека. Любого человека, любые воспоминания, любые впечатления… А теперь представьте себе, что будет, если эта машина окажется в руках злодеев?!



Страна: США
Продолжительность: 01:46:19
Перевод: Двухголосый закадровый(профессиональный), Авторский одноголосый закадровый (А. Гаврилов), Оригинал (Английский)

Файл
Кодек: XviD
Качество: BDRip
Видео: 720x304 (2.37:1), 23.976 fps, 1169 kbps, 0.223 bit/pixel
Аудио#1: 48 kHz, AC3 2.0, 192.00 kbps (Двухголосый)
Аудио#2: 48 kHz, AC3 2.0, 256.00 kbps (А. Гаврилов)
Аудио#3: 48 kHz, AC3 2.0, 192.00 kbps (Английский)



Общее
Полное имя : D:Brainstorm.1983.BDRip.avi
Формат : AVI
Формат/Информация : Audio Video Interleave
Размер файла : 1,36 Гбайт
Продолжительность : 1 ч. 46 м.
Общий поток : 1828 Кбит/сек
Название фильма : Мозговой штурм / Brainstorm (1983)
Программа кодирования : VirtualDubModRus 1.5.10.2 (build 2542/release)
Библиотека кодирования : VirtualDubMod build 2542/release
Правообладатель : rip by Rulya74

Видео
Идентификатор : 0
Формат : MPEG-4 Visual
Профиль формата : Advanced Simple@L5
Параметр BVOP формата : 2
Параметр QPel формата : Нет
Параметр GMC формата : Без точки перехода
Параметр матрицы формата : Default (H.263)
Идентификатор кодека : XVID
Идентификатор кодека/Подсказка : XviD
Продолжительность : 1 ч. 46 м.
Битрейт : 1169 Кбит/сек
Ширина : 720 пикселей
Высота : 304 пикселя
Соотношение сторон : 2,35:1
Частота кадров : 23,976 кадра/сек
Цветовое пространство : YUV
Субдискретизация насыщенности : 4:2:0
Битовая глубина : 8 бит
Тип развёртки : Прогрессивная
Метод сжатия : С потерями
Бит/(Пиксели*Кадры) : 0.223
Размер потока : 889 Мбайт (64%)
Библиотека кодирования : XviD 65

Аудио #1
Идентификатор : 1
Формат : AC-3
Формат/Информация : Audio Coding 3
Расширение режима : CM (complete main)
Идентификатор кодека : 2000
Продолжительность : 1 ч. 46 м.
Вид битрейта : Постоянный
Битрейт : 192 Кбит/сек
Каналы : 2 канала
Расположение каналов : Front: L R
Частота : 48,0 КГц
Битовая глубина : 16 бит
Метод сжатия : С потерями
Размер потока : 146 Мбайт (11%)
Выравнивание : Разделение по промежуткам
Продолжительность промежутка : 42 мс. (1,00 видеокадр)
Время предзагрузки промежутка : 500 мс.
Заголовок : Двухголосый закадровый (профессиональный)

Аудио #2
Идентификатор : 2
Формат : AC-3
Формат/Информация : Audio Coding 3
Расширение режима : CM (complete main)
Идентификатор кодека : 2000
Продолжительность : 1 ч. 46 м.
Вид битрейта : Постоянный
Битрейт : 256 Кбит/сек
Каналы : 2 канала
Расположение каналов : Front: L R
Частота : 48,0 КГц
Битовая глубина : 16 бит
Метод сжатия : С потерями
Размер потока : 195 Мбайт (14%)
Выравнивание : Разделение по промежуткам
Продолжительность промежутка : 42 мс. (1,00 видеокадр)
Время предзагрузки промежутка : 500 мс.
Заголовок : Авторский закадровый (А. Гаврилов)

Аудио #3
Идентификатор : 3
Формат : AC-3
Формат/Информация : Audio Coding 3
Расширение режима : CM (complete main)
Идентификатор кодека : 2000
Продолжительность : 1 ч. 46 м.
Вид битрейта : Постоянный
Битрейт : 192 Кбит/сек
Каналы : 2 канала
Расположение каналов : Front: L R
Частота : 48,0 КГц
Битовая глубина : 16 бит
Метод сжатия : С потерями
Размер потока : 146 Мбайт (11%)
Выравнивание : Разделение по промежуткам
Продолжительность промежутка : 42 мс. (1,00 видеокадр)
Время предзагрузки промежутка : 500 мс.
Заголовок : Оригинал (Английский)





реклама партнёра


Вернуться к началу
 Профиль Отправить личное сообщение  
 
   Похожие торренты   Автор   Торрент   Размер 
В этой теме нет новых непрочитанных сообщений. Сборник книг - Серия "Мозговой штурм" [14 книг] (2009-2014) FB2, PDF

Nickolas3435

690 | 17

124.93 МБ

В этой теме нет новых непрочитанных сообщений. Мятеж в космосе / Штурм четвертого купола / Assault on Dome 4 [Фантастика, боевик, 1996] DVDRip, Avo

salma3

14 | 4

1.37 ГБ

В этой теме нет новых непрочитанных сообщений. Сумеречная зона: Фильм / Twilight Zone: The Movie [ужасы, фантастика, фэнтези, 1983] BDRip-AVC, Mvo

salma3

40 | 2

2.18 ГБ

В этой теме нет новых непрочитанных сообщений. На последнем дыхании / Breathless [боевик, триллер, драма, 1983] BDRip, Mvo

salma3

7 | 1

1.45 ГБ

В этой теме нет новых непрочитанных сообщений. Уик-энд Остермана / The Osterman Weekend [боевик, триллер, драма, 1983] BDRip 1080p, Dvo

salma3

21 | 9

7.95 ГБ

В этой теме нет новых непрочитанных сообщений. Голод / The Hunger [ужасы, триллер, драма, мелодрама, 1983] BDRip 1080p, Mvo+Dvo+Avo+Sub

salma3

50 | 10

7.29 ГБ

В этой теме нет новых непрочитанных сообщений. Сумеречная зона / Twilight Zone: The Movie [ужасы, фантастика, фэнтези, триллер, 1983] HDRip, Dvo

salma3

34 | 4

1.45 ГБ


Начать новую тему Ответить на тему  [ 1 сообщение ] 




Для Мосгорсуда, Роскомнадзора и рекламодателей:: mosgorsud-torrent[собачка]yandex.ru