Торрент файл
скачать торрент магнет ссылка Добавлен: 17 сен 2012, 15:52
Размер: 695.97 МБ
Сидеров: 16
Личеров: 6
Статус: (drink)
Автор

СообщениеДобавлено: 17 сен 2012, 15:52 

В сети
Супермодератор
Аватара пользователя
Дата регистрации:
15 фев 2012, 16:44
Возраст: 27
Спасибо: 5139 / 2089
Сообщения: 17429
Си Джей 7 / CJ7

Перевод: Профессиональный (многоголосый, закадровый), cубтитры: отсутствуют
Формат: DVDRip, AVI, XviD, MP3
Страна: Гонконг
Режиссер: Стивен Чоу
Жанр: фантастика, комедия, детское
Продолжительность: 01:28:14
Год выпуска: 2008
В ролях: Стивен Чоу, Сюй Цзяо, Китти Чжан Юйци, Мин Хун Фанг, Чи Чунг Лам, Ли Чунг-Шинг
Описание: Дики и его отец живут в полуразвалившемся доме, где единственное развлечение - это ловля тараканов, а самый лакомый деликатес - подгнившие яблоки. Отец работает на стройке, пытаясь обеспечить Дики самое лучшее образование. Бедность преследует Дики насмешками соучеников, презрением некоторых из учителей, вечно дырявой обувью, которую отец Дики находит на свалке...Но однажды к ним в дом попадает забавный и непонятный предмет, похожий на мячик, который оказывается инопланетным существом, способным менять форму и творить магию...и с этого момента жизнь Дики круто меняется, сталкивая его с непредвиденными сложностями и казусными ситуациями...


Видео: 656x272 (2.41:1), 23.976 fps, XviD Final 1.0.3 (build 37) ~931 kbps avg, 0.22 bit/pixel
Аудио: 48 kHz, MPEG Layer 3, 2 ch, ~160.00 kbps avg
General
Complete name: D:\Фильмы\Релизы\cj_7_[tfile.ru].avi
Format: AVI
Format/Info: Audio Video Interleave
File size: 696 MiB
Duration: 1h 28mn
Overall bit rate: 1 101 Kbps
Writing application: VirtualDubMod 1.5.4.1 (build 2178/release)
Writing library: VirtualDubMod build 2178/release
Video
ID: 0
Format: MPEG-4 Visual
Format profile: Simple@L3
Format settings, BVOP: 2
Format settings, QPel: No
Format settings, GMC: No warppoints
Format settings, Matrix: Default (H.263)
Muxing mode: Packed bitstream
Codec ID: XVID
Codec ID/Hint: XviD
Duration: 1h 28mn
Bit rate: 932 Kbps
Width: 656 pixels
Height: 272 pixels
Display aspect ratio: 2.40:1
Frame rate: 23.976 fps
Color space: YUV
Chroma subsampling: 4:2:0
Bit depth: 8 bits
Scan type: Progressive
Compression mode: Lossy
Bits/(Pixel*Frame): 0.218
Stream size: 589 MiB (85%)
Writing library: XviD 1.0.3 (UTC 2004-12-20)
Audio
ID: 1
Format: MPEG Audio
Format version: Version 1
Format profile: Layer 3
Mode: Joint stereo
Codec ID: 55
Codec ID/Hint: MP3
Duration: 1h 28mn
Bit rate mode: Constant
Bit rate: 160 Kbps
Channel(s): 2 channels
Sampling rate: 48.0 KHz
Compression mode: Lossy
Stream size: 101 MiB (15%)
Alignment: Aligned on interleaves
Interleave, duration: 42 ms (1.00 video frame)
Interleave, preload duration: 504 ms













реклама партнёра


Вернуться к началу
 Профиль Отправить личное сообщение  
 
   Похожие торренты   Автор   Торрент   Размер 
В этой теме нет новых непрочитанных сообщений. Секрет / Bu neng shuo de. mi mi (Джей Чоу / Jay Chou) [2007г., мелодрама, DVDRip] avo

Alfredovich

7 | 2

1.36 ГБ

В этой теме нет новых непрочитанных сообщений. Джей и Молчаливый Боб наносят ответный удар / Jay and Silent Bob Strike Back (комедия. 2001) BDRip 1080p Dub+Mvo+Avo+Sub

Aleksandr.ru

67 | 2

9.92 ГБ

В этой теме нет новых непрочитанных сообщений. На грани / The Brink [S01] (Джон Полл, Джей Роуч, Скотт Уинант) [Комедия, 2015] HDTVRip 1080p [NewStudio]

Dracon

77 | 69

20.13 ГБ

В этой теме нет новых непрочитанных сообщений. На грани / The Brink [S01] (Джон Полл, Джей Роуч, Скотт Уинант) [Комедия, 2015] HDTVRip 720p [Gears Media]

Dracon

39 | 29

6.82 ГБ

В этой теме нет новых непрочитанных сообщений. Бесплатные образцы / Free Samples / Searching for Love (Джей Гэммилл / Jay Gammill) [2012г., комедия, драма, BDRip 720p] MVO

Alfredovich

59 | 7

3.4 ГБ

В этой теме нет новых непрочитанных сообщений. На грани / The Brink [1 сезон 1-10 серия из 10] (Джон Полл, Джей Роуч, Скотт Уинант) [Комедия, 2015] HDTVRip [Amedia]

Dracon

65 | 53

3.37 ГБ

В этой теме нет новых непрочитанных сообщений. На грани / The Brink [01х01-10 из 10] (Джон Полл, Джей Роуч, Скотт Уинант) [Комедия, 2015] HDTVRip 720p [Amedia]

Dracon

204 | 149

10 ГБ


Начать новую тему Ответить на тему  [ 1 сообщение ] 




Для Мосгорсуда, Роскомнадзора и рекламодателей:: mosgorsud-torrent[собачка]yandex.ru