Торрент файл
скачать торрент магнет ссылка Добавлен: 16 сен 2012, 19:48
Размер: 1.59 ГБ
Сидеров: 11
Личеров: 4
Статус: (drink)
Автор

СообщениеДобавлено: 16 сен 2012, 19:48 

Не в сети
Супермодератор
Аватара пользователя
Дата регистрации:
15 фев 2012, 16:44
Возраст: 27
Спасибо: 5143 / 2090
Сообщения: 17495

Год выпуска: 1992
Жанр:триллер, ужасы
Режиссер: Мэнни Кото / Manny Coto
В ролях: Ларри Дрейк / Larry Drake, Холли Мэри Комбс / Holly Marie Combs, Гленн Куинн / Glenn Quinn, Клифф Де Янг / Cliff De Young, Ричард Брэдфорд / Richard Bradford, Нэнси Фиш / Nancy Fish, Мишель Джонсон / Michelle Johnson, Кит Даймонд / Keith Diamond, Джон Викери / John Vickery, Даг И. Даг / Doug E. Doug, Дениз Барнс / Denise Barnes

Описание:
Главный герой - слабоумный, вечно хихикающий врачеватель во втором поколении Ивен Рендл, был и вправду большой шутник. Насмотревшись на то, как папа-хирург оперирует больных, сынок еще с детства принялся исследовать внутренности своих мягких игрушек с помощью скальпеля, вынимая из них вместо органов вату. Прошли годы, а страсть осталась. Повзрослев и подучившись, а также посидев всё это время в психиатрической лечебнице, он оттуда сбегает и приезжает в свой родной город, где продолжает опыты уже на живых людях, вместо игрушек. И теперь профессия врача-хирурга позволяет ему использовать во время операции, весь арсенал хирургических инструментов, заканчивая её роковой для многих фразой - мы, врачи, лечим, мы же и убиваем...

Страна: США
Продолжительность: 01:34:00
Перевод: Авторский одноголосый (Андрей Гаврилов) / Авторский одноголосый (Леонид Володарский)

Качество: DVDRip
Формат: AVI
Видео кодек: XviD
Аудио кодек: AC3
Видео: 720x384 (1.88:1), 23.976 fps, XviD build 46 ~2000 kbps avg, 0.30 bit/pixel
Audio 1: 48 kHz, AC3 Dolby Digital, 2/0 (L,R) ch, ~192.00 kbps avg (Андрей Гаврилов)
Audio 2: 48 kHz, AC3 Dolby Digital, 2 ch, ~192.00 kbps avg (Леонид Володарский)

Общее
Полное имя: E:FilmsХихикающий доктор.avi
Формат: AVI
Формат/Информация: Audio Video Interleave
Размер файла: 1,59 Гбайт
Продолжительность: 1 ч. 34 м.
Общий поток: 2399 Кбит/сек
Название фильма: Dr.Giggles.1992.DVDRip.XviD-ShitBusters
Программа кодирования: VirtualDubModRus 1.5.10.2 (build 2542/release)
Библиотека кодирования: VirtualDubMod build 2542/release

Видео
Идентификатор: 0
Формат: MPEG-4 Visual
Профиль формата: Advanced Simple@L5
Параметр BVOP формата: 1
Параметр QPel формата: Нет
Параметр GMC формата: Без точки перехода
Параметр матрицы формата: Выборочная
Идентификатор кодека: XVID
Идентификатор кодека/Подсказка: XviD
Продолжительность: 1 ч. 34 м.
Битрейт: 2001 Кбит/сек
Ширина: 720 пикселей
Высота: 384 пикселя
Соотношение сторон: 1,85:1
Частота кадров: 23,976 кадра/сек
Цветовое пространство: YUV
Субдискретизация насыщенности: 4:2:0
Битовая глубина: 8 бит
Тип развёртки: Прогрессивная
Метод сжатия: С потерями
Бит/(Пиксели*Кадры): 0.302
Размер потока: 1,33 Гбайт (83%)
Библиотека кодирования: XviD 1.1.2 (UTC 2006-11-01)

Аудио #1
Идентификатор: 1
Формат: AC-3
Формат/Информация: Audio Coding 3
Профиль формата: Dolby Digital
Расширение режима: CM (complete main)
Параметр Endianness формата: Big
Идентификатор кодека: 2000
Продолжительность: 1 ч. 34 м.
Вид битрейта: Постоянный
Битрейт: 192 Кбит/сек
Каналы: 2 канала
Расположение каналов: Front: L R
Частота: 48,0 КГц
Битовая глубина: 16 бит
Метод сжатия: С потерями
Задержка видео: 8 мс.
Размер потока: 130 Мбайт (8%)
Выравнивание: Разделение по промежуткам
Продолжительность промежутка: 42мс. (1,00 видеокадр)
Время предзагрузки промежутка: 500мс.

Аудио #2
Идентификатор: 2
Формат: AC-3
Формат/Информация: Audio Coding 3
Идентификатор кодека: 2000
Продолжительность: 1 ч. 34 м.
Вид битрейта: Постоянный
Битрейт: 192 Кбит/сек
Каналы: 2 канала
Частота: 48,0 КГц
Метод сжатия: С потерями
Размер потока: 130 Мбайт (8%)
Выравнивание: Разделение по промежуткам
Продолжительность промежутка: 42мс. (1,00 видеокадр)
Время предзагрузки промежутка: 500мс.







реклама партнёра


Вернуться к началу
 Профиль Отправить личное сообщение  
 
   Похожие торренты   Автор   Торрент   Размер 
В этой теме нет новых непрочитанных сообщений. Лунатики / Sleepwalkers [Ужасы, триллер, 1992] BDRip 720p, 2Mvo+2Avo

salma3

17 | 2

5.43 ГБ

В этой теме нет новых непрочитанных сообщений. Леди дракон / Lady Dragon [Боевик, 1992] DVDRip-AVC, 2Avo

salma3

43 | 3

2.3 ГБ

В этой теме нет новых непрочитанных сообщений. Обними меня, взволнуй, поцелуй / Hold Me, Thrill Me, Kiss Me [комедия, 1992] DVDRip, 2Avo

salma3

65 | 5

1.46 ГБ

В этой теме нет новых непрочитанных сообщений. Доктор Мордрид / Doctor Mordrid [фантастика, фэнтези, боевик, триллер, 1992] BDRemux 1080p, Avo

salma3

22 | 10

13.19 ГБ

В этой теме нет новых непрочитанных сообщений. Доктор с другой планеты / Доктор Пришелец / Доктор Чужой / Dr. Alien [фантастика, комедия, 1989] DVDRip, Avo

salma3

77 | 11

1.46 ГБ

В этой теме нет новых непрочитанных сообщений. Восставший из ада / Hellraiser [ужасы, триллер, 1987] BDRemux 1080p, Mvo+2Avo+Sub

salma3

5 | 9

19.69 ГБ

В этой теме нет новых непрочитанных сообщений. Сверхновая / Supernova [Ужасы, фантастика, триллер, 2000] BDRip 720p, Mvo+Dvo+2Avo+Sub

salma3

50 | 11

7.23 ГБ


Начать новую тему Ответить на тему  [ 1 сообщение ] 




Для Мосгорсуда, Роскомнадзора и рекламодателей:: mosgorsud-torrent[собачка]yandex.ru