Торрент файл
скачать торрент магнет ссылка Добавлен: 16 сен 2012, 10:02
Размер: 1.45 ГБ
Сидеров: 6
Личеров: 3
Статус: (Dracon)
Автор

СообщениеДобавлено: 16 сен 2012, 10:02 

Не в сети
Зам. Админа
Аватара пользователя
Дата регистрации:
02 дек 2010, 12:39
Спасибо: 12460 / 214
Сообщения: 27968

Год выхода: 2011
Жанр: триллер, криминал
Режиссер: Винг-Чеонг Лау
В ролях: Энтони Вонг Чау-Санг, Ричи Рен, Дженис Мэн, Мэгги Чунг Хо Йи, Кэнди Ло, Ли Лам, Джан Кунг, Чарли Чо, Алан Чуй Чунг Сан, Елена Конг

О фильме:
Вонг Хо-чиу благополучен и богат до тех пор, пока не наступает время решать конфликт с дочерью Дейзи. Она претендует на самостоятельную жизнь, где присутствуют пьянки, наркотики и другие развлечения «золотой» молодежи. Дейзи похищают. И ситуация резко меняется. Что может сделать отец, чтобы вернуть дочь живой?


Страна: Гонконг
Продолжительность: 01:33:47
Перевод: Авторский, одноголосый закадровый (Ю. Сербин)

Кодек: XviD
Качество: BDRip
Видео: 720х304 (2.37:1), 24, 000 fps, 1756 kbps, 0.334 bit/pixel
Звук: 48 kHz, AC3 5.1, 448.00 kbps (Ю. Сербин)



Общее
Полное имя : D:Bou ying.2011.BDRip.avi
Формат : AVI
Формат/Информация : Audio Video Interleave
Размер файла : 1,45 Гбайт
Продолжительность : 1 ч. 33 м.
Общий поток : 2213 Кбит/сек
Название фильма : Похищение / Bou ying / Punished (2011) BDRip
Программа кодирования : VirtualDubModRus 1.5.10.2 (build 2542/release)
Библиотека кодирования : VirtualDubMod build 2542/release
Правообладатель : rip by Rulya74

Видео
Идентификатор : 0
Формат : MPEG-4 Visual
Профиль формата : Advanced Simple@L5
Параметр BVOP формата : 2
Параметр QPel формата : Нет
Параметр GMC формата : Без точки перехода
Параметр матрицы формата : Default (MPEG)
Режим смешивания : Сжатый битовый поток
Идентификатор кодека : XVID
Идентификатор кодека/Подсказка : XviD
Продолжительность : 1 ч. 33 м.
Битрейт : 1756 Кбит/сек
Ширина : 720 пикселей
Высота : 304 пикселя
Соотношение сторон : 2,35:1
Частота кадров : 24,000 кадра/сек
Цветовое пространство : YUV
Субдискретизация насыщенности : 4:2:0
Битовая глубина : 8 бит
Тип развёртки : Прогрессивная
Метод сжатия : С потерями
Бит/(Пиксели*Кадры) : 0.334
Размер потока : 1,15 Гбайт (79%)
Библиотека кодирования : XviD 1.2.1 (UTC 2008-12-04)

Аудио
Идентификатор : 1
Формат : AC-3
Формат/Информация : Audio Coding 3
Расширение режима : CM (complete main)
Идентификатор кодека : 2000
Продолжительность : 1 ч. 33 м.
Вид битрейта : Постоянный
Битрейт : 448 Кбит/сек
Каналы : 6 каналов
Расположение каналов : Front: L C R, Side: L R, LFE
Частота : 48,0 КГц
Битовая глубина : 16 бит
Метод сжатия : С потерями
Размер потока : 301 Мбайт (20%)
Выравнивание : Разделение по промежуткам
Продолжительность промежутка : 42 мс. (1,00 видеокадр)
Время предзагрузки промежутка : 500 мс.
Заголовок : Авторский одноголосый (Ю. Сербин)





реклама партнёра


Вернуться к началу
 Профиль  
 
   Похожие торренты   Автор   Торрент   Размер 
В этой теме нет новых непрочитанных сообщений. Похищение Фредди Хайнекена / Kidnapping Mr. Heineken (Дэниэл Альфредсон) [боевик, триллер, драма, криминал, 2015] BDRip 720p, dub [Чистый звук]

Dracon

2 | 0

4.45 ГБ

В этой теме нет новых непрочитанных сообщений. Похищение Фредди Хайнекена / Kidnapping Mr. Heineken (Дэниэл Альфредсон) [боевик, триллер, драма, криминал, 2015] BDRip 1080p [Студия Пиратского Дубляжа]

Dracon

0 | 3

6.64 ГБ

В этой теме нет новых непрочитанных сообщений. Похищение Зака Баттерфилда / The Abduction of Zack Butterfield [драма, триллер, криминал, 2011] WEB-DLRip, Avo

salma3

99 | 20

1.34 ГБ

В этой теме нет новых непрочитанных сообщений. Похищение / Rapt [криминал, 2009] BDRip 720p, Dvo+Avo+Sub

salma3

25 | 8

6.5 ГБ

В этой теме нет новых непрочитанных сообщений. Инопланетное похищение / Alien Abduction [Ужасы, фантастика, триллер, 2014] BDRip 720p, Avo

salma3

175 | 8

4.48 ГБ

В этой теме нет новых непрочитанных сообщений. Похищение Фредди Хайнекена / Kidnapping Mr. Heineken (Дэниэл Альфредсон) [боевик, триллер, драма, криминал, 2015] WEB-DL 720p, dvo

Dracon

42 | 5

3.06 ГБ

В этой теме нет новых непрочитанных сообщений. Похищение Фредди Хайнекена / Kidnapping Mr. Heineken (Дэниэл Альфредсон) [боевик, триллер, драма, криминал, 2015] WEB-DLRip, dvo

Dracon

32 | 5

1.28 ГБ


Начать новую тему Ответить на тему  [ 1 сообщение ] 




Для Мосгорсуда, Роскомнадзора и рекламодателей:: mosgorsud-torrent[собачка]yandex.ru