Торрент файл
скачать торрент магнет ссылка Добавлен: 13 сен 2012, 17:28
Размер: 744.87 МБ
Сидеров: 17
Личеров: 5
Статус: (drink)
Автор

СообщениеДобавлено: 13 сен 2012, 17:28 

Не в сети
Супермодератор
Аватара пользователя
Дата регистрации:
15 фев 2012, 16:44
Возраст: 28
Спасибо: 6584 / 2144
Сообщения: 44077

Информация о фильме
Название: Корсиканец
Оригинальное название: L' Enquête corse
Год выхода: 2004
Жанр: боевик, комедия, криминал
Режиссер: Ален Бербериан / Alain Berberian
В ролях: Кристиан Клавье, Жан Рено, Катерина Мурино, Дидье Фламан, Пьер Саласка, Пидо, Ален Маратрат, Франсуа Орсони, Натанаэль Маини, Альбер Дрэ

О фильме:
Парижский нотариус поручает знаменитому детективу и любимцу женщин Джеку Палмеру разыскать на Корсике своего пропавшего клиента, мсье Леони. Приехав на Остров красоты, детектив Палмер быстро превращается из восторженного туриста в решительного бойца, а с виду легкая развлекательная поездка оборачивается рискованной шпионской миссией…


Страна: Франция
Студия: Ouille Productions,Légende Productions, Gaumont
Продолжительность: 01:29:34
Перевод: Профессиональный (дублированный)

Файл
Кодек: XviD / MP3
Качество: DVDRip
Видео: XviD, 688x288 (2.39:1), 25 fps, 1024 kbps, 0.21 bit/pixel
Звук: MP3, 48 kHz, 2 ch, 128 kbps

General
Complete name: /media/L'.Enquete.corse_DVDRip.745.DUB_[Rutor.org].avi
Format: AVI
Format/Info: Audio Video Interleave
File size: 745 MiB
Duration: 1h 29mn
Overall bit rate: 1 163 Kbps
Writing application: VirtualDubMod 1.5.10.2 (build 2540/release)
Writing library: VirtualDubMod build 2540/release

Video
ID: 0
Format: MPEG-4 Visual
Format profile: Advanced Simple@L5
Format settings, BVOP: 1
Format settings, QPel: No
Format settings, GMC: No warppoints
Format settings, Matrix: Default (MPEG)
Codec ID: XVID
Codec ID/Hint: XviD
Duration: 1h 29mn
Bit rate: 1 025 Kbps
Width: 688 pixels
Height: 288 pixels
Display aspect ratio: 2.40:1
Frame rate: 25.000 fps
Color space: YUV
Chroma subsampling: 4:2:0
Bit depth: 8 bits
Scan type: Progressive
Compression mode: Lossy
Bits/(Pixel*Frame): 0.207
Stream size: 657 MiB (88%)
Writing library: XviD 1.2.1 (UTC 2008-12-04)

Audio
ID: 1
Format: MPEG Audio
Format version: Version 1
Format profile: Layer 3
Codec ID: 55
Codec ID/Hint: MP3
Duration: 1h 29mn
Bit rate mode: Constant
Bit rate: 128 Kbps
Channel(s): 2 channels
Sampling rate: 48.0 KHz
Compression mode: Lossy
Stream size: 82.0 MiB (11%)
Alignment: Aligned on interleaves
Interleave, duration: 40 ms (1.00 video frame)
Interleave, preload duration: 504 ms
Writing library: LAME3.98r
Encoding settings: -m s -V 4 -q 2 -lowpass 17 -b 128




реклама партнёра


Вернуться к началу
 Профиль Отправить личное сообщение  
 
   Похожие торренты   Автор   Торрент   Размер 
В этой теме нет новых непрочитанных сообщений. Нью-Йоркское такси / Taxi [боевик, комедия, криминал, 2004] BDRip, Dub

salma3

116 | 23

1.45 ГБ

В этой теме нет новых непрочитанных сообщений. После заката / After the Sunset [боевик, драма, комедия, криминал, 2004] BDRip, Dvo

salma3

170 | 17

1.46 ГБ

В этой теме нет новых непрочитанных сообщений. Налётчики из Голливуда / Hollywood Flies [боевик, криминал, 2004] DVDRip, Dvo

salma3

39 | 3

1.46 ГБ

В этой теме нет новых непрочитанных сообщений. Разборки в стиле Кунг-фу / Kung Fu Hustle [Боевик, фэнтези, комедия, криминал, 2004] BDRip 720p, Dub+Mvo+Sub

salma3

33 | 3

4.37 ГБ

В этой теме нет новых непрочитанных сообщений. Справедливость или хаос / L'enquête (Венсан Гаренк / Vincent Garenq) [2014г., Франция, триллер, HDTVRip] MVO

Alfredovich

250 | 21

1.37 ГБ

В этой теме нет новых непрочитанных сообщений. Сотовый / Cellular [боевик, триллер, криминал, 2004] HDRip-AVC, Dub

salma3

24 | 8

745.37 МБ

В этой теме нет новых непрочитанных сообщений. Есть сэр! / Oh! Yes Sir! [Боевик, комедия, криминал, 1994] DVDRip, Avo

salma3

25 | 5

1.37 ГБ


Начать новую тему Ответить на тему  [ 1 сообщение ] 




Для Мосгорсуда, Роскомнадзора и рекламодателей:: mosgorsud-torrent[собачка]yandex.ru