Торрент файл
скачать торрент магнет ссылка Добавлен: 13 сен 2012, 11:52
Размер: 748.06 МБ
Сидеров: 2
Личеров: 4
Статус: (drink)
Автор

СообщениеДобавлено: 13 сен 2012, 11:52 

Не в сети
Супермодератор
Аватара пользователя
Дата регистрации:
15 фев 2012, 16:44
Возраст: 27
Спасибо: 5835 / 2114
Сообщения: 26744

Информация о фильме
Название: Красный пояс
Оригинальное название: Redbelt
Год выхода: 2008
Жанр: боевик, драма, спорт
Режиссер: Дэвид Мэмет / David Mamet
В ролях: Чиветель Эджиофор, Тим Аллен, Алиси Брага, Эмили Мортимер, Джо Мантенья, Рики Джей, Макс Данн, Хосе Пабло Кантилльо, Родриго Санторо, Сирил Такаяма

О фильме:
Майк Терри работает инструктором по боевым искусствам, занимая свою нишу в кинобизнесе. Его наставничество производит довольно правдоподобный эффект на экране. Но волею судьбы он оказывается втянутым в реальные призовые бои. Несмотря на все его отказы, принимать в них участие, обстоятельства вынуждают его призадуматься и принять вызов, вступая в открытое соревнование. На кону пятьдесят тысяч долларов, благополучие семьи и собственная жизнь.


Страна: США
Студия: Sony Pictures Classics
Продолжительность: 01:39:09
Перевод: Профессиональный (многоголосый закадровый)

Файл
Кодек: XviD / MP3
Качество: HDRip
Видео: XviD, 688 x 288 (2.389 : 1), 23,976 fps, 917 kbsp, 0.193 bits/pixel
Звук: MP3, 48000Hz, 128 kb/s (CBR) , 2 ch (Stereo)

Общее
Формат : AVI
Формат/Информация : Audio Video Interleave
Размер файла : 748 Мбайт
Продолжительность : 1 ч. 39 м.
Общий поток : 1055 Кбит/сек
Программа кодирования : VirtualDubMod 1.5.10.3

Видео
Идентификатор : 0
Формат : MPEG-4 Visual
Профиль формата : Advanced Simple@L5
Параметр BVOP формата : 1
Параметр QPel формата : Нет
Параметр GMC формата : Без точки перехода
Параметр матрицы формата : Выборочная
Идентификатор кодека : XVID
Идентификатор кодека/Подсказка : XviD
Продолжительность : 1 ч. 39 м.
Битрейт : 918 Кбит/сек
Ширина : 688 пикселей
Высота : 288 пикселей
Соотношение сторон : 2,40:1
Частота кадров : 23,976 кадра/сек
Цветовое пространство : YUV
Субдискретизация насыщенности : 4:2:0
Битовая глубина : 8 бит
Тип развёртки : Прогрессивная
Метод сжатия : С потерями
Бит/(Пиксели*Кадры) : 0.193
Размер потока : 651 Мбайт (87%)
Библиотека кодирования : XviD 58

Аудио
Идентификатор : 1
Формат : MPEG Audio
Версия формата : Version 1
Профиль формата : Layer 3
Идентификатор кодека : 55
Идентификатор кодека/Подсказка : MP3
Продолжительность : 1 ч. 39 м.
Вид битрейта : Постоянный
Битрейт : 128 Кбит/сек
Каналы : 2 канала
Частота : 48,0 КГц
Метод сжатия : С потерями
Размер потока : 90,8 Мбайт (12%)
Выравнивание : Соединение по промежуткам
Продолжительность промежутка : 42 мс. (1,00 видеокадр)
Время предзагрузки промежутка : 504 мс.
Библиотека кодирования : LAME3.98r




реклама партнёра


Вернуться к началу
 Профиль Отправить личное сообщение  
 
   Похожие торренты   Автор   Торрент   Размер 
В этой теме нет новых непрочитанных сообщений. Красный Барон / Der rote Baron [боевик, драма, мелодрама, приключения, военный, биография, 2008] BDRip 720p, Dvo

salma3

122 | 44

5.35 ГБ

В этой теме нет новых непрочитанных сообщений. Чёрный пояс / Blackbelt [Боевик, 1992] DVDRip, Dvo [РЕН-ТВ]

salma3

85 | 25

1.46 ГБ

В этой теме нет новых непрочитанных сообщений. Красный скорпион / Red Scorpion [Боевик, приключения, 1988] HDRip, Dvo

salma3

0 | 2

1.46 ГБ

В этой теме нет новых непрочитанных сообщений. Красный и розовый / Aka x Pinku  (Койти Сакамото) [Боевик, 2014] HDRip, avo

Dracon

6 | 3

1.46 ГБ

В этой теме нет новых непрочитанных сообщений. Красный и розовый / Aka x Pinku (Койти Сакамото)[2014, боевик, эротика, HDRip] avo

Nickolas3435

17 | 6

2.06 ГБ

В этой теме нет новых непрочитанных сообщений. Братья / Brothers [ Боевик, драма, спорт, 2015] HDRip-AVC, RUS SUB

msmara

10 | 1

2.24 ГБ

В этой теме нет новых непрочитанных сообщений. Рукопашный бой / Tapped Out [боевик, драма, спорт, 2014] HDRip, Avo

salma3

2250 | 41

1.46 ГБ


Начать новую тему Ответить на тему  [ 1 сообщение ] 




Для Мосгорсуда, Роскомнадзора и рекламодателей:: mosgorsud-torrent[собачка]yandex.ru