Торрент файл
скачать торрент магнет ссылка Добавлен: 11 сен 2012, 13:31
Размер: 745.25 МБ
Сидеров: 4
Личеров: 2
Статус: (drink)
Автор

СообщениеДобавлено: 11 сен 2012, 13:31 

Не в сети
Супермодератор
Аватара пользователя
Дата регистрации:
15 фев 2012, 16:44
Возраст: 27
Спасибо: 5139 / 2089
Сообщения: 17432
Год выпуска: 2005
Страна: США

Киностудия: 2710 Inc., Deviant Films
Жанр:триллер, драма, криминал
Продолжительность: 01:33:33

Перевод: Профессиональный (двухголосый) лицензия
Cубтитры: нет
Оригинальная аудиодорожка: нет

Режиссер: Крис Фишер / Chris Fisher

В ролях: Кьюба Гудинг-младший, Клифтон Коллинз-младший, Коул Хаузер Вайклеф, Джин Кейт Дэвид, Вуд Харрис, Роберт ЛаСардо, Лобо Себастьян, Табу Хлео Томас...

Описание: Однажды Санчо и Дэй, офицеры по борьбе с наркотиками, попадают в поле зрения Службы внутренних расследований по подозрению в коррупции. Они и правда не без греха, но никогда серьезно не марались. Только почему-то именно их «прессуют» особо рьяно. Зажатые меж молотом следствия и наковальней наркомафии Санчо и Дэй понимают: это подстава. И нет шанса уйти незапятнанными...





Исходник: DVD5
Тип релиза: DVDRip
Контейнер: AVI

Видео: 672x368 (16:9), 25 fps, XviD MPEG-4 ~ 976 kbps avg, 0.158 bit/pixel
Аудио: 48 kHz, MPEG Layer 3, 2 ch, ~ 128.00 kbps avg

Общее
Полное имя: Грязное делоGrjaznoe.delo.2005.DVDRip.avi
Формат: AVI
Формат/Информация: Audio Video Interleave
Размер файла: 745 Мбайт
Продолжительность: 1 ч. 33 м.
Общий поток: 1114 Кбит/сек
Программа кодирования: VirtualDubMod 1.5.10.3 | http://www.virtualdub-fr.org || (build 2550/release)
Библиотека кодирования: VirtualDubMod build 2550/release

Видео
Идентификатор: 0
Формат: MPEG-4 Visual
Профиль формата: Advanced Simple@L5
Параметр BVOP формата: 1
Параметр QPel формата: Нет
Параметр GMC формата: Без точки перехода
Параметр матрицы формата: Выборочная
Идентификатор кодека: XVID
Идентификатор кодека/Подсказка: XviD
Продолжительность: 1 ч. 33 м.
Битрейт: 976 Кбит/сек
Ширина: 672 пикселя
Высота: 368 пикселей
Соотношение сторон: 16:9
Частота кадров: 25,000 кадров/сек
Цветовое пространство: YUV
Субдискретизация насыщенности: 4:2:0
Битовая глубина: 8 бит
Тип развёртки: Чересстрочная
Порядок развёртки: Нижнее поле первое
Метод сжатия: С потерями
Бит/(Пиксели*Кадры): 0.158
Размер потока: 653 Мбайт (88%)
Библиотека кодирования: XviD 1.2.1 (UTC 2008-12-04)

Аудио
Идентификатор: 1
Формат: MPEG Audio
Версия формата: Version 1
Профиль формата: Layer 3
Идентификатор кодека: 55
Идентификатор кодека/Подсказка: MP3
Продолжительность: 1 ч. 33 м.
Вид битрейта: Постоянный
Битрейт: 128 Кбит/сек
Каналы: 2 канала
Частота: 48,0 КГц
Метод сжатия: С потерями
Размер потока: 85,7 Мбайт (11%)
Выравнивание: Соединение по промежуткам
Продолжительность промежутка: 40мс. (1,00 видеокадр)
Время предзагрузки промежутка: 504мс.
Библиотека кодирования: LAME3.98r




Раздача от:




реклама партнёра


Вернуться к началу
 Профиль Отправить личное сообщение  
 
   Похожие торренты   Автор   Торрент   Размер 
В этой теме нет новых непрочитанных сообщений. Грязная ложь / Dirty Lies [Боевик, триллер, драма, криминал, 2016] DVDRip, Dvo

salma3

0 | 0

700.89 МБ

В этой теме нет новых непрочитанных сообщений. Грязные прелести / Dirty Pretty Things [триллер, драма, криминал, 2002] BDRip 1080p, Dub

salma3

107 | 69

9.09 ГБ

В этой теме нет новых непрочитанных сообщений. Правое дело / Just Cause [Криминал, триллер, драма, 1995] BDRip 720p, Dub

salma3

30 | 3

2.17 ГБ

В этой теме нет новых непрочитанных сообщений. Правое дело / Just Cause [Триллер, Драма, Криминал, Детектив, 1995] BDRip, Dub

salma3

0 | 2

1.45 ГБ

В этой теме нет новых непрочитанных сообщений. Грязная ложь / Dirty Lies (Джэми Маршалл / Jamie Marshall) [2016г., боевик, триллер, драма, криминал, WEB-DLRip] DVO

Alfredovich

23 | 7

1.37 ГБ

В этой теме нет новых непрочитанных сообщений. Дурацкое дело нехитрое / Kraftidioten [Боевик, Триллер, Комедия, Криминал, 2014] DVDRip, Mvo

Dracon

59 | 3

1.46 ГБ

В этой теме нет новых непрочитанных сообщений. Дурацкое дело нехитрое / Kraftidioten [триллер, криминал, драма, 2014] BDRemux 1080p, Mvo+Sub

salma3

36 | 13

21.97 ГБ


Начать новую тему Ответить на тему  [ 1 сообщение ] 




Для Мосгорсуда, Роскомнадзора и рекламодателей:: mosgorsud-torrent[собачка]yandex.ru