Торрент файл
скачать торрент магнет ссылка Добавлен: 11 сен 2012, 13:00
Размер: 2.19 ГБ
Сидеров: 8
Личеров: 5
Статус: (drink)
Автор

СообщениеДобавлено: 11 сен 2012, 13:00 

Не в сети
3 Звезды
Аватара пользователя
Дата регистрации:
02 сен 2012, 20:44
Спасибо: 97 / 0
Сообщения: 80
Бьютифул / Biutiful (2010) BDRip



Информация о фильме
Название: Бьютифул
Оригинальное название: Biutiful
Год выхода: 2010
Жанр: драма
Режиссер: Алехандро Гонсалес Иньярриту
В ролях: Хавьер Бардем, Марисель Альварес, Ханна Бушаиб, Гильермо Эстрелла, Эдуард Фернандес, Шейх Ндиае, Диарьяту Дафф, Чэнь Тайшэн, Ло Цзинь, Джордж Чибуиквем Чуквума

О фильме:
Разведенный отец двоих детей Уксбаль — свой человек в теневом мире Барселоны. Для правоохранительных органов он — нарушитель закона; для нелегальных иммигрантов, которым помогает получить работу, — добрый ангел. Узнав, что неизлечимо болен, Уксбаль начинает готовиться к смерти…


Страна: Мексика, Испания
Продолжительность: 02:27:23
Перевод: Дубляж, Авторский, одноголосый закадровый (Ю. Сербин)

Файл
Кодек: XviD
Качество: BDRip
Видео: 720x384 (1.88:1), 23.976 fps, 1341 kbps, 0.202 bit/pixel
Аудио#1: 48 kHz, AC3 5.1, 384.00 kbps (Дубляж)
Аудио#2: 48 kHz, AC3 5.1, 384.00 kbps (Ю. Сербин)



Общее
Полное имя : D:Biutiful.2010.BDRip.avi
Формат : AVI
Формат/Информация : Audio Video Interleave
Профиль формата : OpenDML
Размер файла : 2,19 Гбайт
Продолжительность : 2 ч. 27 м.
Общий поток : 2127 Кбит/сек
Название фильма : Бьютифул / Biutiful (2010) BDRip
Программа кодирования : VirtualDubModRus 1.5.10.2 (build 2542/release)
Библиотека кодирования : VirtualDubMod build 2542/release
Правообладатель : rip by Rulya74

Видео
Идентификатор : 0
Формат : MPEG-4 Visual
Профиль формата : Advanced Simple@L5
Параметр BVOP формата : 2
Параметр QPel формата : Нет
Параметр GMC формата : Без точки перехода
Параметр матрицы формата : Default (MPEG)
Режим смешивания : Сжатый битовый поток
Идентификатор кодека : XVID
Идентификатор кодека/Подсказка : XviD
Продолжительность : 2 ч. 27 м.
Битрейт : 1341 Кбит/сек
Ширина : 720 пикселей
Высота : 384 пикселя
Соотношение сторон : 16:9
Частота кадров : 23,976 кадра/сек
Цветовое пространство : YUV
Субдискретизация насыщенности : 4:2:0
Битовая глубина : 8 бит
Тип развёртки : Прогрессивная
Метод сжатия : С потерями
Бит/(Пиксели*Кадры) : 0.202
Размер потока : 1,38 Гбайт (63%)
Библиотека кодирования : XviD 64

Аудио #1
Идентификатор : 1
Формат : AC-3
Формат/Информация : Audio Coding 3
Расширение режима : CM (complete main)
Идентификатор кодека : 2000
Продолжительность : 2 ч. 27 м.
Вид битрейта : Постоянный
Битрейт : 384 Кбит/сек
Каналы : 6 каналов
Расположение каналов : Front: L C R, Side: L R, LFE
Частота : 48,0 КГц
Битовая глубина : 16 бит
Метод сжатия : С потерями
Размер потока : 405 Мбайт (18%)
Выравнивание : Разделение по промежуткам
Продолжительность промежутка : 42 мс. (1,00 видеокадр)
Время предзагрузки промежутка : 500 мс.
Заголовок : Дубляж

Аудио #2
Идентификатор : 2
Формат : AC-3
Формат/Информация : Audio Coding 3
Расширение режима : CM (complete main)
Идентификатор кодека : 2000
Продолжительность : 2 ч. 27 м.
Вид битрейта : Постоянный
Битрейт : 384 Кбит/сек
Каналы : 6 каналов
Расположение каналов : Front: L C R, Side: L R, LFE
Частота : 48,0 КГц
Битовая глубина : 16 бит
Метод сжатия : С потерями
Размер потока : 405 Мбайт (18%)
Выравнивание : Разделение по промежуткам
Продолжительность промежутка : 42 мс. (1,00 видеокадр)
Время предзагрузки промежутка : 500 мс.
Заголовок : Авторский (Ю. Сербин)





реклама партнёра


Вернуться к началу
 Профиль Отправить личное сообщение  
 
   Похожие торренты   Автор   Торрент   Размер 
В этой теме нет новых непрочитанных сообщений. Бьютифул / Biutiful [драма, 2010] HDRip, Mvo

salma3

114 | 10

1.45 ГБ

В этой теме нет новых непрочитанных сообщений. Политики / Raajneeti [боевик, триллер, драма, криминал, 2010] HDRip, Mvo+Sub

salma3

5 | 4

2.92 ГБ

В этой теме нет новых непрочитанных сообщений. Политики / Raajneeti [боевик, триллер, драма, криминал, 2010] HDRip, Mvo [КПК]

salma3

3 | 2

511.74 МБ

В этой теме нет новых непрочитанных сообщений. Великолепный / Столкновение / Adhurs [Боевик, триллер, драма, 2010] HDRip, Mvo

salma3

3 | 3

1.46 ГБ

В этой теме нет новых непрочитанных сообщений. Красный холм / Red Hill [триллер, драма, криминал, 2010] HDRip, Dvo

salma3

11 | 4

1.19 ГБ

В этой теме нет новых непрочитанных сообщений. Зарождение Мертвецов / Dead Genesis [ужасы, триллер, драма, 2010] HDRip, Avo

salma3

5 | 3

1.45 ГБ

В этой теме нет новых непрочитанных сообщений. Сделано в Дагенхэме / Made in Dagenham [драма, комедия, исторический, 2010] HDRip, Dvo

salma3

44 | 8

1.45 ГБ


Начать новую тему Ответить на тему  [ 1 сообщение ] 




Для Мосгорсуда, Роскомнадзора и рекламодателей:: mosgorsud-torrent[собачка]yandex.ru