Торрент файл
скачать торрент магнет ссылка Добавлен: 10 сен 2012, 09:27
Размер: 1.46 ГБ
Сидеров: 6
Личеров: 4
Статус: (Dracon)
Автор

СообщениеДобавлено: 10 сен 2012, 09:27 

Не в сети
Зам. Админа
Аватара пользователя
Дата регистрации:
02 дек 2010, 12:39
Спасибо: 12460 / 214
Сообщения: 27968
Год выпуска: 2011
Страна: США
Студии: Amadeus Pictures, Polynesian Paradise

Жанр:драма
Продолжительность: 01:51:55

Перевод: Профессиональный (многоголосый закадровый)
Субтитры: нет
Оригинальная аудиодорожка: нет

Режиссер: Дэмиан Чапа/ Damian Chapa

В ролях: Рикко Чапа, Дэмиэн Чапа, Пресли Чапа, Фил Скай, Патриция Хили, Наташа Бласик, Меган Джордж, Эрик Андерсен, Николь Эндрюс, Тейлор Рени Кэмпбелл...

Описание: Фильм расскажет о жизни одного из величайших актеров современности Марлона Брандо. Судьба этого великого человека складывалась совсем не просто. Нелегок был путь к славе. Проблемы в семье преследовали его на протяжении всей жизни. Фильм снят в жесткой манере, чтобы показать всю гамму переживаний Брандо. На протяжении всего просмотра зритель будет жить вместе с легендарным актером, переживать вместе с гением кинематографа и сочувствовать по настоящему великому человеку. «Брандо без купюр» не предназначен для детей, в фильме действительно показывается жизнь, как она есть. Без прикрас и преувеличений...





Исходник: DVD9
Тип релиза: DVDRip-AVC
Контейнер: MKV

Видео: 720x400 (16:9), 25 fps, H264 ~ 1646 kbps avg, 0.229 bit/pixel
Аудио: 48 kHz, AC3, 2 ch, 224.00 kbps Constant,Русский

Общее
Полное имя: Brando.bez.kupjur.2011Brando.bez.kupjur.2011.DVDRip-AVC.mkv
Формат: Matroska
Версия формата: Version 2
Размер файла: 1,46 Гбайт
Продолжительность: 1 ч. 51 м.
Общий поток: 1871 Кбит/сек
Название фильма: Brando.bez.kupjur.2011.DVDRip-AVC
Дата кодирования: UTC 2011-11-24 19:56:00
Программа кодирования: mkvmerge v5.0.1 ('Es ist Sommer') built on Oct9 2011 11:55:43
Библиотека кодирования: libebml v1.2.2 + libmatroska v1.3.0

Видео
Идентификатор: 1
Формат: AVC
Формат/Информация: Advanced Video Codec
Профиль формата: High@L4.1
Параметр CABAC формата: Да
Параметр ReFrames формата: 6 кадров
Идентификатор кодека: V_MPEG4/ISO/AVC
Продолжительность: 1 ч. 51 м.
Битрейт: 1646 Кбит/сек
Ширина: 720 пикселей
Высота: 400 пикселей
Соотношение сторон: 16:9
Частота кадров: 25,000 кадров/сек
Цветовое пространство: YUV
Субдискретизация насыщенности: 4:2:0
Битовая глубина: 8 бит
Тип развёртки: Прогрессивная
Бит/(Пиксели*Кадры): 0.229
Размер потока: 1,26 Гбайт (86%)
Заголовок: Источник DVD
Библиотека кодирования: x264 core 114 r1913 5fd3dce
Настройки программы: cabac=1 / ref=6 / deblock=1:-2:-1 / analyse=0x3:0x113 / me=umh / subme=8 / psy=1 / psy_rd=1.00:0.10 / mixed_ref=1 / me_range=32 / chroma_me=1 / trellis=1 / 8x8dct=1 / cqm=0 / deadzone=21,11 / fast_pskip=1 / chroma_qp_offset=-3 / threads=3 / sliced_threads=0 / nr=0 / decimate=1 / interlaced=0 / constrained_intra=0 / bframes=6 / b_pyramid=2 / b_adapt=1 / b_bias=0 / direct=3 / weightb=1 / open_gop=0 / weightp=0 / keyint=250 / keyint_min=25 / scenecut=40 / intra_refresh=0 / rc_lookahead=60 / rc=2pass / mbtree=1 / bitrate=1646 / ratetol=1.0 / qcomp=0.60 / qpmin=0 / qpmax=69 / qpstep=4 / cplxblur=20.0 / qblur=0.5 / ip_ratio=1.40 / aq=1:1.00
Язык: English
Default: Да
Forced: Нет

Аудио
Идентификатор: 2
Формат: AC-3
Формат/Информация: Audio Coding 3
Расширение режима: CM (complete main)
Идентификатор кодека: A_AC3
Продолжительность: 1 ч. 51 м.
Вид битрейта: Постоянный
Битрейт: 224 Кбит/сек
Каналы: 2 канала
Расположение каналов: Front: L R
Частота: 48,0 КГц
Битовая глубина: 16 бит
Метод сжатия: С потерями
Размер потока: 179 Мбайт (12%)
Заголовок: Источник DVD MVO
Язык: Russian
Default: Да
Forced: Нет

Меню
00:00:00.000: ru:00:00:00.000000000
00:05:00.000: :00:05:00.000000000
00:10:00.000: :00:10:00.000000000
00:15:00.000: :00:15:00.000000000
00:20:00.000: :00:20:00.000000000
00:25:00.000: :00:25:00.000000000
00:30:00.000: :00:30:00.000000000
00:35:00.000: :00:35:00.000000000
00:40:00.000: :00:40:00.000000000
00:45:00.000: :00:45:00.000000000
00:50:00.000: :00:50:00.000000000
00:55:00.000: :00:55:00.000000000
01:00:00.000: :01:00:00.000000000
01:05:00.000: :01:05:00.000000000
01:10:00.000: :01:10:00.000000000
01:15:00.000: :01:15:00.000000000
01:20:00.000: :01:20:00.000000000
01:25:00.000: :01:25:00.000000000



Раздача от:




реклама партнёра


Вернуться к началу
 Профиль  
 
   Похожие торренты   Автор   Торрент   Размер 
В этой теме нет новых непрочитанных сообщений. December People - DP3: Unauthorized Holiday Classics [2013, Classic Rock, Hard Rock, MP3]

PriZraK

0 | 1

89.99 МБ

В этой теме нет новых непрочитанных сообщений. Поближе / A Little Closer [драма, 2011] DVDRip, Mvo

salma3

11 | 2

872.29 МБ

В этой теме нет новых непрочитанных сообщений. Ложь во спасение / Orhim le-rega [Драма, 2011] DVDRip, Dvo

salma3

16 | 2

1.37 ГБ

В этой теме нет новых непрочитанных сообщений. Управление государством / L'exercice de l'État [драма, 2011] DVDRip, Avo

salma3

54 | 2

1.46 ГБ

В этой теме нет новых непрочитанных сообщений. Любовь и ссадины / Love and Bruises [драма, 2011] DVDRip, Dvo

salma3

8 | 2

1.34 ГБ

В этой теме нет новых непрочитанных сообщений. Мало вариантов / Few Options [драма, криминал, 2011] DVDRip, Mvo [НТВ+]

salma3

5 | 3

1.37 ГБ

В этой теме нет новых непрочитанных сообщений. Я твоя ведьма / Nenu Naa Rakshasi [боевик, драма, 2011] DVDRip, Dvo+Sub

salma3

19 | 8

1.46 ГБ


Начать новую тему Ответить на тему  [ 1 сообщение ] 




Для Мосгорсуда, Роскомнадзора и рекламодателей:: mosgorsud-torrent[собачка]yandex.ru