Торрент файл
скачать торрент магнет ссылка Добавлен: 08 сен 2012, 00:53
Размер: 1.46 ГБ
Сидеров: 21
Личеров: 3
Статус: (Dracon)
Автор

СообщениеДобавлено: 08 сен 2012, 00:53 

В сети
Супермодератор
Аватара пользователя
Дата регистрации:
15 фев 2012, 16:44
Возраст: 28
Спасибо: 6577 / 2143
Сообщения: 43865


Страна: Италия
Жанр:драма
Год выпуска: 2012
Продолжительность: 01:13:41
Перевод: Профессиональный (многоголосый) |Лицензия|
Cубтитры: русский
Оригинальная аудиодорожка: итальянский



Режиссер: Паоло Тавиани / Paolo Taviani, Витторио Тавиани / Vittorio Taviani



В ролях: Козимо Рега, Сальваторе Стриано, Джованни Аркури, Antonio Frasca, Хуан Дарио Бонетти, Винченцо Галло, Rosario Majorana, Франческо Де Маси, Gennaro Solito, Витторио Паррелла...



Описание: Заканчивается пьеса Шекспира «Юлий Цезарь», занавес, бурные овации. Гаснет свет, актеры покидают сцену и… возвращаются в камеры римской тюрьмы строгого режима «Ребибия». Камера запечатлела грандиозный эксперимент по постановке спектакля режиссером Фабио Кавалли с заключенными, многие из которых отбывают пожизненный срок. Универсальный язык Шекспира помогает новоявленным актерам понять свои роли, вновь познать дружбу и предательство, власть, обман и насилие — сначала в пьесе, а потом и в своей жизни. И хотя подмостки этой пьесы — тюрьма, в самом фильме она удивительным образом исчезает…




Источник: DVD9 R5
Качество видео: DVDRip
Формат видео: AVI

Видео: 720x384 (1.85:1), 25 fps, XviD MPEG-4 ~ 1990 kbps avg, 0.288 bit/pixel
Аудио 1: 48 kHz, AC3 6 ch, 448.00 kbps Constant, русский
Аудио 2: 48 kHz, AC3 6 ch, 384.00 kbps Constant, итальянский
Формат субтитров: SoftSub (srt)

Раздача от:


Общее
Полное имя: Tsezar.dolzhen.umeret.2012.P.DVDRip_[Youtracker]_by_avproh.avi
Формат: AVI
Формат/Информация: Audio Video Interleave
Размер файла: 1,46 Гбайт
Продолжительность: 1 ч. 13 м.
Общий поток: 2835 Кбит/сек
Программа кодирования: VirtualDubMod 1.5.10.3 (build 2550/release)
Библиотека кодирования: VirtualDubMod build 2550/release

Видео
Идентификатор: 0
Формат: MPEG-4 Visual
Профиль формата: Advanced Simple@L5
Параметр BVOP формата: 1
Параметр QPel формата: Нет
Параметр GMC формата: Без точки перехода
Параметр матрицы формата: Выборочная
Идентификатор кодека: XVID
Идентификатор кодека/Подсказка: XviD
Продолжительность: 1 ч. 13 м.
Битрейт: 1990 Кбит/сек
Ширина: 720 пикселей
Высота: 384 пикселя
Соотношение сторон: 1,85:1
Частота кадров: 25,000 кадров/сек
Цветовое пространство: YUV
Субдискретизация насыщенности: 4:2:0
Битовая глубина: 8 бит
Тип развёртки: Прогрессивная
Метод сжатия: С потерями
Бит/(Пиксели*Кадры): 0.288
Размер потока: 1,02 Гбайт (70%)
Библиотека кодирования: XviD 65

Аудио #1
Идентификатор: 1
Формат: AC-3
Формат/Информация: Audio Coding 3
Расширение режима: CM (complete main)
Параметр Endianness формата: Big
Идентификатор кодека: 2000
Продолжительность: 1 ч. 13 м.
Вид битрейта: Постоянный
Битрейт: 448 Кбит/сек
Каналы: 6 каналов
Расположение каналов: Front: L C R, Side: L R, LFE
Частота: 48,0 КГц
Битовая глубина: 16 бит
Метод сжатия: С потерями
Размер потока: 236 Мбайт (16%)
Выравнивание: Разделение по промежуткам
Продолжительность промежутка: 40мс. (1,00 видеокадр)
Время предзагрузки промежутка: 500мс.

Аудио #2
Идентификатор: 2
Формат: AC-3
Формат/Информация: Audio Coding 3
Расширение режима: CM (complete main)
Параметр Endianness формата: Big
Идентификатор кодека: 2000
Продолжительность: 1 ч. 13 м.
Вид битрейта: Постоянный
Битрейт: 384 Кбит/сек
Каналы: 6 каналов
Расположение каналов: Front: L C R, Side: L R, LFE
Частота: 48,0 КГц
Битовая глубина: 16 бит
Метод сжатия: С потерями
Размер потока: 202 Мбайт (14%)
Выравнивание: Разделение по промежуткам
Продолжительность промежутка: 40мс. (1,00 видеокадр)
Время предзагрузки промежутка: 500мс.







реклама партнёра


Вернуться к началу
 Профиль Отправить личное сообщение  
 
   Похожие торренты   Автор   Торрент   Размер 
В этой теме нет новых непрочитанных сообщений. Ужасный способ умереть / A Horrible Way to Die [ужасы, триллер, 2010] HDRip, Mvo [Лицензия]

salma3

13 | 3

1.45 ГБ

В этой теме нет новых непрочитанных сообщений. Чёрный цезарь / Black Caesar [боевик, триллер, драма, 1973] BDRip, Dvo

salma3

25 | 15

1.45 ГБ

В этой теме нет новых непрочитанных сообщений. Победить или умереть / Do or Die [Боевик, 1991] DVDRip, Mvo

salma3

162 | 29

1.47 ГБ

В этой теме нет новых непрочитанных сообщений. Жить и умереть в Лос-Анджелесе / To Live and Die in L.A. [боевик, триллер, драма, криминал, 1985] HDRip, Avo [Гаврилов]

salma3

24 | 1

1.45 ГБ

В этой теме нет новых непрочитанных сообщений. Жить и умереть в Лос-Анджелесе / To Live and Die in L.A. [боевик, триллер, драма, криминал, 1985] BDRip 1080p, Mvo

salma3

49 | 13

12.39 ГБ

В этой теме нет новых непрочитанных сообщений. Слишком красивые, чтобы умереть – последний выход / Sotto il vestito niente - L'ultima sfilata [Триллер, Детектив, 2011] DVDRip, Avo

salma3

32 | 4

1.37 ГБ

В этой теме нет новых непрочитанных сообщений. Squirt Or Die! / Брызнуть или Умереть! (Joanna Angel, Burning Angel Entertainment) [2017 г., Gonzo, Alt Girls, Cumshots, Squirting, Tattoo, DVDRip]

max77777

2 | 10

1.28 ГБ


Начать новую тему Ответить на тему  [ 1 сообщение ] 




Для Мосгорсуда, Роскомнадзора и рекламодателей:: mosgorsud-torrent[собачка]yandex.ru