Торрент файл
скачать торрент магнет ссылка Добавлен: 05 сен 2012, 13:56
Размер: 1.84 ГБ
Сидеров: 41
Личеров: 5
Статус: (Dracon)
Автор

СообщениеДобавлено: 05 сен 2012, 13:56 

Не в сети
Супермодератор
Аватара пользователя
Дата регистрации:
15 фев 2012, 16:44
Возраст: 28
Спасибо: 6574 / 2141
Сообщения: 43790
Тони 10 / Tony 10 (2012) DVDRip

Название: Тони 10
Оригинальное название: Tony 10
Год выхода: 2012
Жанр:семейный
Режиссер: Миша Камп / Mischa Kamp

В ролях:
Фаас Вийн, Jeroen Spitzenberger, Рифка Лодейзен, Аннет Мальэрб, Carlo Boszhard, Люк Питерс, Анна Дрейвер

Описание:
Семейный фильм, рассказывающий невероятную историю о почти десятилетнем Тони, чей папа делает головокружительную карьеру от крановщика до министра транспорта. Из-за этого между его, как казалось мальчику, созданными друг для друга родителями все чаще начинают возникать разногласия, семья оказывается на грани развода, и Тони готов сделать все, чтобы его папа и мама снова были вместе. Даже призвать на помощь Королеву.



Производство: Нидерланды, Леммингфильм
Продолжительность: 01:22:05
Перевод: Авторский (одноголосый закадровый)

Перевод: Дмитрий Крейслер
Озвучание: Вячеслав Прошин

Файл
Формат: AVI
Качество: DVDRip
Видео: 720x384 (1.88:1), 25 fps, XviD MPEG-4 ~2300 kbps avg, 0.33 bit/pixel
Аудио 1: 48 kHz, AC3 Dolby Digital, 3/2 (L,C,R,l,r) + LFE ch, ~448 kbps (русский)
Аудио 2: 48 kHz, AC3 Dolby Digital, 3/2 (L,C,R,l,r) + LFE ch, ~448 kbps (голландский)
Размер: 1.84 Гб
Общее
Полное имя: D:ФильмыTony10.rus.hol.avi
Формат: AVI
Формат/Информация: Audio Video Interleave
Размер файла: 1,84 Гбайт
Продолжительность: 1 ч. 22 м.
Общий поток: 3212 Кбит/сек
Программа кодирования: VirtualDubModRus 1.5.10.2 (build 2540/release)
Библиотека кодирования: VirtualDubMod build 2540/release

Видео
Идентификатор: 0
Формат: MPEG-4 Visual
Профиль формата: Advanced Simple@L5
Параметр BVOP формата: 2
Параметр QPel формата: Нет
Параметр GMC формата: Без точки перехода
Параметр матрицы формата: Default (H.263)
Режим смешивания: Сжатый битовый поток
Идентификатор кодека: XVID
Идентификатор кодека/Подсказка: XviD
Продолжительность: 1 ч. 22 м.
Битрейт: 2302 Кбит/сек
Ширина: 720 пикселей
Высота: 384 пикселя
Соотношение сторон: 1,875
Частота кадров: 25,000 кадров/сек
Цветовое пространство: YUV
Субдискретизация насыщенности: 4:2:0
Битовая глубина: 8 бит
Тип развёртки: Прогрессивная
Метод сжатия: С потерями
Бит/(Пиксели*Кадры): 0.333
Размер потока: 1,32 Гбайт (72%)
Библиотека кодирования: XviD 63

Аудио #1
Идентификатор: 1
Формат: AC-3
Формат/Информация: Audio Coding 3
Расширение режима: CM (complete main)
Идентификатор кодека: 2000
Продолжительность: 1 ч. 22 м.
Вид битрейта: Постоянный
Битрейт: 448 Кбит/сек
Каналы: 6 каналов
Расположение каналов: Front: L C R, Side: L R, LFE
Частота: 48,0 КГц
Битовая глубина: 16 бит
Метод сжатия: С потерями
Размер потока: 263 Мбайт (14%)
Выравнивание: Разделение по промежуткам
Продолжительность промежутка: 40мс. (1,00 видеокадр)
Время предзагрузки промежутка: 500мс.

Аудио #2
Идентификатор: 2
Формат: AC-3
Формат/Информация: Audio Coding 3
Расширение режима: CM (complete main)
Идентификатор кодека: 2000
Продолжительность: 1 ч. 22 м.
Вид битрейта: Постоянный
Битрейт: 448 Кбит/сек
Каналы: 6 каналов
Расположение каналов: Front: L C R, Side: L R, LFE
Частота: 48,0 КГц
Битовая глубина: 16 бит
Метод сжатия: С потерями
Размер потока: 263 Мбайт (14%)
Выравнивание: Разделение по промежуткам
Продолжительность промежутка: 40мс. (1,00 видеокадр)
Время предзагрузки промежутка: 500мс.











реклама партнёра


Вернуться к началу
 Профиль Отправить личное сообщение  
 
   Похожие торренты   Автор   Торрент   Размер 
В этой теме нет новых непрочитанных сообщений. Скуби-Ду и KISS: Тайна рок-н-ролла / Scooby-Doo! And Kiss: Rock and Roll Mystery (Спайк Брандт, Тони Червоне) [Мультфильм, семейный, 2015] DVDRip, dub [Чистый звук]

Dracon

7 | 0

1.37 ГБ

В этой теме нет новых непрочитанных сообщений. Том и Гек / Tom und Hacke [семейный, приключения, 2012] DVDRip, Avo

salma3

36 | 9

1.5 ГБ

В этой теме нет новых непрочитанных сообщений. Отбросы / The Throwaways (Тони Буи) [фэнтези, боевик, триллер, 2015] DVDRip, Mvo [Лицензия]

Dracon

15 | 0

1.37 ГБ

В этой теме нет новых непрочитанных сообщений. Искупление сердца / Redemption of the Heart [Драма, семейный, мелодрма, 2012] DVDRip, Mvo

salma3

56 | 24

1.35 ГБ

В этой теме нет новых непрочитанных сообщений. Tony Lakatos - Standard Time [2014, Jazz, MP3]

salma3

0 | 1

146.09 МБ

В этой теме нет новых непрочитанных сообщений. Discovery: Сканируя небо. Телескоп Discovery Channel / Discovery: Scanning the skies. The discovery channel telescope (Тони Бекон, Натан Хэндри) [2012, документальный, SATRip] AVO

salma3

0 | 1

379.98 МБ

В этой теме нет новых непрочитанных сообщений. Eating Out / Секс навынос (Los Scandalous / Wicked Pictures) (Kalina Ryu, Tony Martinez, Miss Melrose, Morgan Lee, Katerina Kay...) [2014 г., All Sex, WEB-DL 400p]

friizze

70 | 31

1.39 ГБ


Начать новую тему Ответить на тему  [ 1 сообщение ] 




Для Мосгорсуда, Роскомнадзора и рекламодателей:: mosgorsud-torrent[собачка]yandex.ru