Торрент файл
скачать торрент магнет ссылка Добавлен: 03 сен 2012, 16:27
Размер: 2.11 ГБ
Сидеров: 50
Личеров: 8
Статус: (Dracon)
Автор

СообщениеДобавлено: 03 сен 2012, 16:27 

В сети
Супермодератор
Аватара пользователя
Дата регистрации:
15 фев 2012, 16:44
Возраст: 27
Спасибо: 5139 / 2089
Сообщения: 17429
Фантомы / Phantoms
Перевод: Профессиональный (многоголосый, закадровый)
Субтитры: Русские(полные, отключаемые, SRT), Русские(полные, отключаемые, VobSub)
Формат: DVDRip, MKV, H.264, AC3
Страна: США, Япония
Режиссер: Джо Чаппелль
Жанр: ужасы, фантастика, триллер, драма
Продолжительность: 01:32:16
Год выпуска: 1998
В ролях: Бен Аффлек, Питер О’Тул, Роуз МакГоун, Джоэнна Гоуинг, Лив Шрайбер, Никки Кэтт, Клифтон Пауэлл, Рик Отто, Валери Чоу, Адам Нельсон
Описание: Некая страшная сила, дремлющая в недрах земли, однажды пробуждается от сна. Это зловещее Нечто, способное уничтожить целые цивилизации, выбирает себе первую жертву — маленький миролюбивый городок Сноуфилд в штате Колорадо.
В одночасье сотни его жителей умирают ужасной смертью, а горстка оставшихся в живых людей, среди которых две молодые девушки, местный шериф со своим заместителем и известный журналист, вступают в отчаянную схватку со злом. Теперь в их руках — судьба человечества…


Видео: 720x400 (1,89:1), 25,000 fps, MPEG4 AVC (х264), ~2500 kbps avg, 0.362 bit/pixel
Аудио#1:Русский: 48 kHz,AC-3, 6 ch, ~384.00 kbps avg [Профессиональный (многоголосый, закадровый)]
Аудио#2:Английский: 48 kHz,AC-3, 6 ch, ~384.00 kbps avg [Оригинал]

РИП и синхронизация субтитров SRT:
Замечательная экранизация одного из лучших романов «Короля Страха» Дина Кунца (впрочем, на этот титул также претендует и Стивен Кинг), с одноименным названием и плеядой блистательных актеров.
Фильм создан в лучших традициях мистических триллеров, которыми так славится автор, где интрига и нестандартный подход к повествованию имеет первоначальный смысл. Оригинальная сюжетная линия непрерывно держит зрителя в напряжении, неизбитые сценические решения - не дают расслабится и нагоняют атмосферу ужаса.
Принято считать, что картина снята по реальным событиям (имеется ввиду документировано доказанные факты внезапного исчезновения больших групп людей на протяжении длительного времени, вплоть до ХХ века (взять, хотя бы, исчезнувшие города майя, 30 человек, пропавших из деревни эскимосов близ озера Анджикуни, или же - тот же самый Норфолкский полк)), что только усиливаетинтерес к фильму.
Художественная ценность картины - не вызывает сомнений: хорошие спецэффекты, неплохие декорации, точная проработка опустевшего города, фрагменты старых музыкальных композиций - пришлись в самый раз.
Актерский состав прекрасно справился с поставленной режиссером задачей (а по-другому и не должно быть, учитывая его состав, в который вошли: Питер О’Тул (Лоуренс Аравийский), Бен Аффлек (Пёрл-Харбор), Роуз МакГоун (Крик), Лив Шрайбер (Кейт и Лео, Люди Икс: Начало. Росомаха) и другие звезды).
Советую обязательно посмотреть фильм любителям творчества Дина Кунца и Стивена Кинга (его «Буря столетия» немного сюжетно пересекается с данной картиной) - не будете разочарованы!

___Участник группы «Рецензенты» Shrapnel
Исходник: DVD5
Общее
Уникальный идентификатор : 205451820614719183102578008015280967638 (0x9A9094D307EA2C38A95A797FB15E8FD6)
Полное имя : f:\Downloads\phantoms_[tfile.ru].mkv
Формат : Matroska
Версия формата : Version 2
Размер файла : 2,11 Гбайт
Продолжительность : 1 ч. 32 м.
Общий поток : 3273 Кбит/сек
Дата кодирования : UTC 2012-08-19 22:33:38
Программа кодирования : mkvmerge v4.6.0 ('Still Crazy After All These Years') сборка от Mar 10 2011 02:50:32
Библиотека кодирования : libebml v1.2.0 + libmatroska v1.1.0
Видео
Идентификатор : 1
Формат : AVC
Формат/Информация : Advanced Video Codec
Профиль формата :
Параметр CABAC формата : Да
Параметр ReFrames формата : 2 кадра
Идентификатор кодека : V_MPEG4/ISO/AVC
Продолжительность : 1 ч. 32 м.
Битрейт : 2500 Кбит/сек
Ширина : 720 пикселей
Высота : 384 пикселя
Соотношение сторон : 1,888
Соотношение сторон в оригинале : 1,889
Режим частоты кадров : Переменный
Частота кадров : 25,000 кадров/сек
Цветовое пространство : YUV
Субдискретизация насыщенности : 4:2:0
Битовая глубина : 8 бит
Тип развёртки : Прогрессивная
Бит/(Пиксели*Кадры) : 0.362
Размер потока : 1,57 Гбайт (75%)
Библиотека кодирования : x264 core 125 r2208
Настройки программы : cabac=1 / ref=2 / deblock=1:-1:-1 / analyse=0x3:0x133 / me=hex / subme=7 / psy=1 / psy_rd=1.00:0.10 / mixed_ref=0 / me_range=16 / chroma_me=1 / trellis=1 / 8x8dct=1 / cqm=0 / deadzone=21,11 / fast_pskip=1 / chroma_qp_offset=-3 / threads=6 / lookahead_threads=1 / sliced_threads=0 / nr=0 / decimate=1 / interlaced=0 / bluray_compat=0 / constrained_intra=0 / bframes=3 / b_pyramid=0 / b_adapt=1 / b_bias=0 / direct=3 / weightb=1 / open_gop=0 / weightp=2 / keyint=250 / keyint_min=25 / scenecut=40 / intra_refresh=0 / rc_lookahead=40 / rc=2pass / mbtree=1 / bitrate=2500 / ratetol=1.0 / qcomp=0.60 / qpmin=10 / qpmax=69 / qpstep=4 / cplxblur=20.0 / qblur=0.5 / vbv_maxrate=24000 / vbv_bufsize=24000 / nal_hrd=none / ip_ratio=1.40 / aq=1:1.00
Язык : English
Default : Да
Forced : Нет
Аудио #1
Идентификатор : 2
Формат : AC-3
Формат/Информация : Audio Coding 3
Расширение режима : CM (complete main)
Параметр Endianness формата : Big
Идентификатор кодека : A_AC3
Продолжительность : 1 ч. 32 м.
Вид битрейта : Постоянный
Битрейт : 384 Кбит/сек
Каналы : 6 каналов
Расположение каналов : Front: L C R, Side: L R, LFE
Частота : 48,0 КГц
Битовая глубина : 16 бит
Метод сжатия : С потерями
Размер потока : 253 Мбайт (12%)
Заголовок : MVO
Язык : Russian
Default : Да
Forced : Нет
Аудио #2
Идентификатор : 3
Формат : AC-3
Формат/Информация : Audio Coding 3
Расширение режима : CM (complete main)
Параметр Endianness формата : Big
Идентификатор кодека : A_AC3
Продолжительность : 1 ч. 32 м.
Вид битрейта : Постоянный
Битрейт : 384 Кбит/сек
Каналы : 6 каналов
Расположение каналов : Front: L C R, Side: L R, LFE
Частота : 48,0 КГц
Битовая глубина : 16 бит
Метод сжатия : С потерями
Размер потока : 253 Мбайт (12%)
Язык : English
Default : Нет
Forced : Нет
Текст #1
Идентификатор : 4
Формат : VobSub
Идентификатор кодека : S_VOBSUB
Идентификатор кодека/Информация : The same subtitle format used on DVDs
Язык : Russian
Default : Да
Forced : Нет
Текст #2
Идентификатор : 5
Формат : UTF-8
Идентификатор кодека : S_TEXT/UTF8
Идентификатор кодека/Информация : UTF-8 Plain Text
Язык : Russian
Default : Нет
Forced : Нет
Меню
00:00:00.000 : en:Глава 01
00:04:27.800 : en:Глава 02
00:08:52.480 : en:Глава 03
00:12:25.160 : en:Глава 04
00:16:41.000 : en:Глава 05
00:25:15.280 : en:Глава 06
00:29:13.960 : en:Глава 07
00:33:11.080 : en:Глава 08
00:38:14.240 : en:Глава 09
00:42:45.160 : en:Глава 10
00:45:53.920 : en:Глава 11
00:52:21.840 : en:Глава 12
00:56:24.680 : en:Глава 13
00:59:19.400 : en:Глава 14
01:15:14.640 : en:Глава 15
01:20:07.400 : en:Глава 16
01:26:37.400 : en:Глава 17
01:27:52.280 : en:Глава 18





















реклама партнёра


Вернуться к началу
 Профиль Отправить личное сообщение  
 
   Похожие торренты   Автор   Торрент   Размер 
В этой теме нет новых непрочитанных сообщений. Фантомы / Shutter [ужасы, мистика, триллер, детектив, 2008] BDRip, Dub+Sub [Лицензия]

salma3

42 | 4

1.45 ГБ

В этой теме нет новых непрочитанных сообщений. Тварь Питера Бенчли / Peter Benchley's Creature [ужасы, фантастика, триллер, 1998] DVDRip, Mvo

salma3

6 | 5

1.46 ГБ

В этой теме нет новых непрочитанных сообщений. Проклятое ущелье / Hell Mountain [ужасы, боевик, триллер, драма, 1998] DVDRip, Avo

salma3

6 | 2

915.15 МБ

В этой теме нет новых непрочитанных сообщений. Мумия: Принц Египта / Tale of the Mummy [Ужасы, фантастика, триллер, 1998] HDRip, Dvo

salma3

71 | 7

1.46 ГБ

В этой теме нет новых непрочитанных сообщений. Стрейнджлэнд / Strangeland [ужасы, триллер, 1998] DVDRip, Avo

salma3

29 | 3

1.37 ГБ

В этой теме нет новых непрочитанных сообщений. Токсин / Toxin [ужасы, фантастика, триллер, драма, 2015] DVDRip, Avo

salma3

312 | 8

1.37 ГБ

В этой теме нет новых непрочитанных сообщений. Неродившийся ребенок / The Unborn [ужасы, фантастика, триллер, драма, 1991] DVDRip, Mvo

salma3

28 | 1

1.37 ГБ


Начать новую тему Ответить на тему  [ 1 сообщение ] 




Для Мосгорсуда, Роскомнадзора и рекламодателей:: mosgorsud-torrent[собачка]yandex.ru