Торрент файл
скачать торрент магнет ссылка Добавлен: 31 авг 2012, 16:59
Размер: 1.46 ГБ
Сидеров: 20
Личеров: 7
Статус: (drink)
Автор

СообщениеДобавлено: 31 авг 2012, 16:59 

Не в сети
Супермодератор
Аватара пользователя
Дата регистрации:
15 фев 2012, 16:44
Возраст: 27
Спасибо: 5121 / 2089
Сообщения: 17282
Год выпуска: 2011
Страна: США
Жанр:комедия
Продолжительность: 01:30:53

Перевод: Профессиональный (многоголосый) - Лицензия
Субтитры: нет
Оригинальная аудидорожка: нет

Режиссер: Джеф Кэнью / Jeff Kanew

В ролях: Уилл Сассо, Тони Кокс, Кристанна Локен, Рип Торн, Йен Зиринг, Адам Дивайн, Расселл Питерс, Софи Монк, Дион Ричмонд, Дэннис Хэскинс...

Описание: Сюжет картины рассказывает о храбром генерале Овезоместе Максимусе, которому Король Трои приказывает сопровождать принца Орландо в Грецию, чтобы уладить назревающий конфликт с тамошним правителем. В гостях у неприятеля принц Орландо встречает красавицу принцессу Эллен, и увозит ее с собой, обратно в Трою. Разгневанный греческий царь собирает огромную армию в миллион человек и идет войной на Трою. В ответ отважный Овезомест Максимус призывает на помощь 300 спартанцев...





Источник: BDRip 1080p
Качество видео: HDRip
Формат видео: AVI

Видео: 720x400 (16:9), 23.976 fps, XviD MPEG-4 ~ 1901 kbps avg, 0.275 bit/pixel
Аудио: 48 kHz, AC3, 6 ch, 384.00 kbps

Общее
Полное имя: E:avprohTipa.krutye.spartantsy.2011.P.HDRip_[Youtracker]_by_avproh.avi
Формат: AVI
Формат/Информация: Audio Video Interleave
Размер файла: 1,46 Гбайт
Продолжительность: 1 ч. 30 м.
Общий поток: 2295 Кбит/сек
Программа кодирования: VirtualDubMod 1.5.10.3 (build 2550/release)
Библиотека кодирования: VirtualDubMod build 2550/release

Видео
Идентификатор: 0
Формат: MPEG-4 Visual
Профиль формата: Advanced Simple@L5
Параметр BVOP формата: 1
Параметр QPel формата: Нет
Параметр GMC формата: Без точки перехода
Параметр матрицы формата: Выборочная
Идентификатор кодека: XVID
Идентификатор кодека/Подсказка: XviD
Продолжительность: 1 ч. 30 м.
Битрейт: 1901 Кбит/сек
Ширина: 720 пикселей
Высота: 400 пикселей
Соотношение сторон: 16:9
Частота кадров: 23,976 кадра/сек
Цветовое пространство: YUV
Субдискретизация насыщенности: 4:2:0
Битовая глубина: 8 бит
Тип развёртки: Прогрессивная
Метод сжатия: С потерями
Бит/(Пиксели*Кадры): 0.275
Размер потока: 1,21 Гбайт (83%)
Библиотека кодирования: XviD 65

Аудио
Идентификатор: 1
Формат: AC-3
Формат/Информация: Audio Coding 3
Расширение режима: CM (complete main)
Параметр Endianness формата: Big
Идентификатор кодека: 2000
Продолжительность: 1 ч. 30 м.
Вид битрейта: Постоянный
Битрейт: 384 Кбит/сек
Каналы: 6 каналов
Расположение каналов: Front: L C R, Side: L R, LFE
Частота: 48,0 КГц
Битовая глубина: 16 бит
Метод сжатия: С потерями
Размер потока: 250 Мбайт (17%)
Выравнивание: Разделение по промежуткам
Продолжительность промежутка: 42мс. (1,00 видеокадр)
Время предзагрузки промежутка: 500мс





Раздача от:




реклама партнёра


Вернуться к началу
 Профиль Отправить личное сообщение  
 
   Похожие торренты   Автор   Торрент   Размер 
В этой теме нет новых непрочитанных сообщений. Крутые парни / Крутые ребята / Крутые мужики / Tough Guys [криминал, комедия, 1986] WEB-DL 720p, Dub+Mvo+Sub

salma3

4 | 1

3.36 ГБ

В этой теме нет новых непрочитанных сообщений. Типа копы / Let's Be Cops [Комедия, криминал, 2014] BDRip-AVC, Mvo+Sub [Лицензия]

salma3

922 | 60

2.18 ГБ

В этой теме нет новых непрочитанных сообщений. Типа копы / Let's Be Cops [Комедия, 2014] BDRip 720p, Dub+Sub [Лицензия]

Dracon

188 | 20

7.46 ГБ

В этой теме нет новых непрочитанных сообщений. Типа копы / Let's Be Cops [Комедия, 2014] BDRip 1080p, Dub+Sub [Лицензия]

Dracon

409 | 44

13.95 ГБ

В этой теме нет новых непрочитанных сообщений. Типа копы / Let's Be Cops [Комедия, 2014] BDRip 720p, Dub+Sub [Лицензия]

Dracon

594 | 47

3.47 ГБ

В этой теме нет новых непрочитанных сообщений. Телеведущий: И снова здравствуйте / Anchorman 2: The Legend Continues [Комедия, 2013] HDRip, Dub [лицензия]

Dracon

156 | 5

1.46 ГБ

В этой теме нет новых непрочитанных сообщений. Типа копы / Let's Be Cops [Комедия, 2014] HDRip, Dub [iTunes]

Dracon

1030 | 21

1.37 ГБ


Начать новую тему Ответить на тему  [ 1 сообщение ] 




Для Мосгорсуда, Роскомнадзора и рекламодателей:: mosgorsud-torrent[собачка]yandex.ru