Торрент файл
скачать торрент магнет ссылка Добавлен: 31 авг 2012, 15:33
Размер: 744.94 МБ
Сидеров: 6
Личеров: 3
Статус: (PriZraK)
Автор

СообщениеДобавлено: 31 авг 2012, 15:33 

Не в сети
Супермодератор
Аватара пользователя
Дата регистрации:
15 фев 2012, 16:44
Возраст: 28
Спасибо: 6589 / 2145
Сообщения: 44145
Год выпуска: 2011
Страна: США
Жанр:комедия
Продолжительность: 01:30:53

Перевод: Профессиональный (многоголосый) - Лицензия
Субтитры: нет
Оригинальная аудидорожка: нет

Режиссер: Джеф Кэнью / Jeff Kanew

В ролях: Уилл Сассо, Тони Кокс, Кристанна Локен, Рип Торн, Йен Зиринг, Адам Дивайн, Расселл Питерс, Софи Монк, Дион Ричмонд, Дэннис Хэскинс...

Описание: Сюжет картины рассказывает о храбром генерале Овезоместе Максимусе, которому Король Трои приказывает сопровождать принца Орландо в Грецию, чтобы уладить назревающий конфликт с тамошним правителем. В гостях у неприятеля принц Орландо встречает красавицу принцессу Эллен, и увозит ее с собой, обратно в Трою. Разгневанный греческий царь собирает огромную армию в миллион человек и идет войной на Трою. В ответ отважный Овезомест Максимус призывает на помощь 300 спартанцев...





Источник: BDRip 1080p
Качество видео: HDRip
Формат видео: AVI

Видео: 656x368 (16:9), 23.976 fps, XviD MPEG-4 ~ 1009 kbps avg, 0.174 bit/pixel
Аудио: 48 kHz, MPEG Layer 3, 2 ch, ~128.00 kbps avg

Общее
Полное имя: E:avprohTipa.krutye.spartantsy.2011.P.HDRip.745MB_[Youtracker]_by_avproh.avi
Формат: AVI
Формат/Информация: Audio Video Interleave
Размер файла: 745 Мбайт
Продолжительность: 1 ч. 30 м.
Общий поток: 1146 Кбит/сек
Программа кодирования: VirtualDubMod 1.5.10.3 (build 2550/release)
Библиотека кодирования: VirtualDubMod build 2550/release

Видео
Идентификатор: 0
Формат: MPEG-4 Visual
Профиль формата: Advanced Simple@L5
Параметр BVOP формата: 1
Параметр QPel формата: Нет
Параметр GMC формата: Без точки перехода
Параметр матрицы формата: Выборочная
Идентификатор кодека: XVID
Идентификатор кодека/Подсказка: XviD
Продолжительность: 1 ч. 30 м.
Битрейт: 1009 Кбит/сек
Ширина: 656 пикселей
Высота: 368 пикселей
Соотношение сторон: 16:9
Частота кадров: 23,976 кадра/сек
Цветовое пространство: YUV
Субдискретизация насыщенности: 4:2:0
Битовая глубина: 8 бит
Тип развёртки: Прогрессивная
Метод сжатия: С потерями
Бит/(Пиксели*Кадры): 0.174
Размер потока: 656 Мбайт (88%)
Библиотека кодирования: XviD 65

Аудио
Идентификатор: 1
Формат: MPEG Audio
Версия формата: Version 1
Профиль формата: Layer 3
Режим: Joint stereo
Расширение режима: MS Stereo
Идентификатор кодека: 55
Идентификатор кодека/Подсказка: MP3
Продолжительность: 1 ч. 30 м.
Вид битрейта: Постоянный
Битрейт: 128 Кбит/сек
Каналы: 2 канала
Частота: 48,0 КГц
Метод сжатия: С потерями
Размер потока: 83,2 Мбайт (11%)
Выравнивание: Соединение по промежуткам
Продолжительность промежутка: 42мс. (1,00 видеокадр)
Время предзагрузки промежутка: 504мс.





Раздача от:




реклама партнёра


Вернуться к началу
 Профиль Отправить личное сообщение  
 
   Похожие торренты   Автор   Торрент   Размер 
В этой теме нет новых непрочитанных сообщений. Крутые парни / Крутые ребята / Крутые мужики / Tough Guys [криминал, комедия, 1986] WEB-DL 720p, Dub+Mvo+Sub

salma3

4 | 1

3.36 ГБ

В этой теме нет новых непрочитанных сообщений. Крутые меры / Bastille Day (Боевик, драма, 2016) HDRip от Generalfilm | КПК | Лицензия

marya111

166 | 25

335.59 МБ

В этой теме нет новых непрочитанных сообщений. Легенда / Legend [криминал, триллер, драма, 2015] HDRip, Dub [лицензия]

Dracon

180 | 6

2.18 ГБ

В этой теме нет новых непрочитанных сообщений. Легенда / Legend [криминал, триллер, драма, 2015] HDRip, Dub [лицензия]

salma3

612 | 16

1.45 ГБ

В этой теме нет новых непрочитанных сообщений. Крутые меры / Bastille Day [боевик, драма, 2016] BDRip, Dub [Лицензия]

salma3

363 | 84

1.46 ГБ

В этой теме нет новых непрочитанных сообщений. Крутые меры / Bastille Day (боевик, драма, 2016) BDRip от HQCLUB | D | Лицензия

marya111

132 | 19

1.45 ГБ

В этой теме нет новых непрочитанных сообщений. Крутые меры / Bastille Day [Боевик, драма, 2016] BDRip 720p, Dub [Лицензия]

salma3

193 | 199

5.79 ГБ


СообщениеДобавлено: 31 авг 2012, 16:45 

Не в сети
Аватара пользователя
Дата регистрации:
11 авг 2012, 18:14
Возраст: 41
Спасибо: 0 / 15
Сообщения: 12
salma3
Кино смотрибельное?

_________________


Вернуться к началу
 Профиль Отправить личное сообщение  
 

СообщениеДобавлено: 31 авг 2012, 20:00 

Не в сети
Супермодератор
Аватара пользователя
Дата регистрации:
11 апр 2010, 18:10
Спасибо: 5962 / 7
Сообщения: 56765
Говно вроде полное)


Вернуться к началу
 Профиль Отправить личное сообщение  
 

СообщениеДобавлено: 31 авг 2012, 20:07 

Не в сети
Зам. Админа
Аватара пользователя
Дата регистрации:
02 дек 2010, 12:39
Спасибо: 12623 / 214
Сообщения: 28012
drink писал(а):
Говно вроде полное)

но ведь смотребительное :lol:


Вернуться к началу
 Профиль  
 

СообщениеДобавлено: 31 авг 2012, 20:10 

Не в сети
Супермодератор
Аватара пользователя
Дата регистрации:
11 апр 2010, 18:10
Спасибо: 5962 / 7
Сообщения: 56765
Типа того)


Вернуться к началу
 Профиль Отправить личное сообщение  
 

СообщениеДобавлено: 01 сен 2012, 01:00 

Не в сети
Супермодератор
Аватара пользователя
Дата регистрации:
15 фев 2012, 16:44
Возраст: 28
Спасибо: 6589 / 2145
Сообщения: 44145
юмор ниже пояса....
кому что нравиться

_________________
Проголосуй за трекер Открытый торрент трекер - RUS-MEDIA.ORG

Проголосуй Открытый торрент трекер - RUS-MEDIA.ORG


Вернуться к началу
 Профиль Отправить личное сообщение  
 

СообщениеДобавлено: 01 сен 2012, 01:19 

Не в сети
Супермодератор
Аватара пользователя
Дата регистрации:
22 май 2010, 11:03
Возраст: 32
Спасибо: 7690 / 13
Сообщения: 49871
А мне понравился фильм, спасибо автору :)


Вернуться к началу
 Профиль Отправить личное сообщение  
 

СообщениеДобавлено: 02 сен 2012, 18:42 

Не в сети
Аватара пользователя
Дата регистрации:
11 авг 2012, 18:14
Возраст: 41
Спасибо: 0 / 15
Сообщения: 12
salma3 писал(а):
юмор ниже пояса....
кому что нравиться

Согласен. Фильм на любителя. :yes:

_________________


Вернуться к началу
 Профиль Отправить личное сообщение  
 
Начать новую тему Ответить на тему  [ Сообщений: 8 ] 




Для Мосгорсуда, Роскомнадзора и рекламодателей:: mosgorsud-torrent[собачка]yandex.ru