Торрент файл
скачать торрент магнет ссылка Добавлен: 31 авг 2012, 15:25
Размер: 740.32 МБ
Сидеров: 3
Личеров: 2
Статус: (drink)
Автор

СообщениеДобавлено: 31 авг 2012, 15:25 

Не в сети
Супермодератор
Аватара пользователя
Дата регистрации:
15 фев 2012, 16:44
Возраст: 27
Спасибо: 5143 / 2090
Сообщения: 17478
Информация о фильме
Название: Одетта Тулемонд
Оригинальное название: Odette Toulemonde
Страна: Франция, Бельгия
Жанр:комедия, драма
Год выпуска: 2006
Продолжительность: 01:36:28
Перевод: Любительский (двухголосый закадровый)
Cубтитры: нет

Режиссер: Эрик-Эмманюэль Шмитт / Eric-Emmanuel Schmitt

В ролях: Катрин Фро, Альбер Дюпонтель, Жак Вебер, Ален Дуте, Камила Джепи, Фабрис Мурджа и др.

Описание: Главная героиня фильма - Одетта - обычная женщина, работающая продавцом в магазине, и вырастившая двоих детей. У Одетт есть одна страсть - книги Бальтазара Бальзана. Когда она их читает, то словно поднимается к небесам, забывая обо всём на свете. И вот она решает написать ему письмо, в котором рассказывает, какое значение в её жизни имеют его книги.
В момент сильной депрессии, вызванной изменой жены и отрицательными отзывами о его новой книге, Бальтазар находит её письмо, которое он, засунул себе в карман, несколькими днями ранее, не обратив на него особого внимания. Он находит её, и просит приютить его на время, ведь он не может больше найти своего места в жизни....

Качество видео: DVDRip
Формат видео: AVI
Видео: XviD, 576x240 (2.40:1), 25 fps, 871 kbps
Аудио: MPEG Audio, Layer 3, 192 Kbps, 48.0 KHz



General
Complete name : G:torrentsНовая папкаOdette Toutlemonde.avi
Format : AVI
Format/Info : Audio Video Interleave
File size : 740 MiB
Duration : 1h 36mn
Overall bit rate : 1 073 Kbps
Video #0
ID : 0
Format : MPEG-4 Visual
Format profile : Advanced Simple@L5
Format settings, BVOP : 2
Format settings, QPel : No
Format settings, GMC : No warppoints
Format settings, Matrix : Default (MPEG)
Codec ID : XVID
Codec ID/Hint : XviD
Duration : 1h 36mn
Bit rate : 871 Kbps
Width : 576 pixels
Height : 240 pixels
Display aspect ratio : 2.40:1
Frame rate : 25.000 fps
Color space : YUV
Chroma subsampling : 4:2:0
Bit depth : 8 bits
Scan type : Progressive
Compression mode : Lossy
Bits/(Pixel*Frame) : 0.252
Stream size : 601 MiB (81%)
Writing library : XviD 1.1.0 (UTC 2005-11-22)
Audio #1
ID : 1
Format : MPEG Audio
Format version : VerMPEG Audiosion 1
Format profile : Layer 3
Mode : Joint stereo
Codec ID : 55
Codec ID/Hint : MP3
Duration : 1h 36mn
Bit rate mode : Constant
Bit rate : 192 Kbps
Channel(s) : 2 channels
Sampling rate : 48.0 KHz
Compression mode : Lossy
Stream size : 132 MiB (18%)
Alignment : Aligned on interleaves
Interleave, duration : 40 ms (1.00 video frame)
Interleave, preload duration : 504 ms

Раздача от:




реклама партнёра


Вернуться к началу
 Профиль Отправить личное сообщение  
 
   Похожие торренты   Автор   Торрент   Размер 
В этой теме нет новых непрочитанных сообщений. After School Special / Занятия После Школы (Ablaze) (Jasmine Gold, Kira Foolish, Odette, Sabrina Sweet, Zafira) [2014 г., 18+ Teens,All sex,Facial, WEB-DL 404p]

friizze

24 | 10

1.51 ГБ

В этой теме нет новых непрочитанных сообщений. Экзамен / Sinav [Драма, комедия, 2006] DVDRip, Avo

salma3

46 | 3

1.37 ГБ

В этой теме нет новых непрочитанных сообщений. Комедия власти / L'ivresse du pouvoir [Драма, 2006] DVDRip, Avo

salma3

36 | 5

1.45 ГБ

В этой теме нет новых непрочитанных сообщений. Я и Наполеон / N (Io e Napoleone) [драма, комедия, исторический, 2006] DVDRip, Mvo

salma3

17 | 5

1.46 ГБ

В этой теме нет новых непрочитанных сообщений. Уроки вождения / Driving Lessons [драма, комедия, 2006] DVDRip, Mvo

salma3

7 | 2

1.46 ГБ

В этой теме нет новых непрочитанных сообщений. Положись на друзей / Friends with Money [драма, мелодрама, комедия, 2006] DVDRip, Mvo

salma3

5 | 2

1.46 ГБ

В этой теме нет новых непрочитанных сообщений. Места в партере / Fauteuils d'orchestre [драма, мелодрама, комедия, 2006] DVDRip, Mvo

salma3

142 | 58

1.46 ГБ


Начать новую тему Ответить на тему  [ 1 сообщение ] 




Для Мосгорсуда, Роскомнадзора и рекламодателей:: mosgorsud-torrent[собачка]yandex.ru