Торрент файл
скачать торрент магнет ссылка Добавлен: 29 авг 2012, 20:45
Размер: 687.52 МБ
Сидеров: 6
Личеров: 4
Статус: (drink)
Автор

СообщениеДобавлено: 29 авг 2012, 20:45 

Не в сети
Супермодератор
Аватара пользователя
Дата регистрации:
15 фев 2012, 16:44
Возраст: 27
Спасибо: 5139 / 2089
Сообщения: 17411
Воздушные террористы / Air panic

Перевод: Профессиональный (двухголосый)
Cубтитры:Отсутствуют
Формат: SATRip, AVI, DivX, MP3
Страна: США
Режиссер: Боб Мисиоровски
Жанр: боевик, триллер, драма
Продолжительность: 01:26:42
Год выпуска: 2002
В ролях:Родни Роулэнд, Кристанна Локен, Александр Энберг, Тэд Шакелфорд, Барбара Каррера, Скотт Майкл Кэмпбелл, Таккер Смоллвуд, Билли «Слай» Уильямс, Дэвид Бове, Джон Бишоп
Описание: Вот уже несколько дней паника царит в небе над Соединенными Штатами — неизвестный террорист уничтожает пассажирские самолеты, направляя их на здания и важные промышленные объекты. Цель безумца неясна, но один из работников Федерального управления авиации подозревает, что самолеты управлялись при помощи недавно установленных в них чипов.
Хотя Нилу не верят, он, стремясь доказать свою правоту, проникает на борт воздушного судна, которое маньяк намеревается обрушить на огромную атомную электростанцию, погрузив полстраны в зловещий мрак. Сможет ли Нил вместе с отважной стюардессой Джози посадить обреченный самолет, обезвредить убийцу и спасти невинных людей?


Видео: 512x384 (1.33:1), 25 fps, DivX ;-) MPEG-4 Low-Motion ~999 kbps avg, 0.20 bit/pixel
Аудио: 44.100 kHz, MPEG Layer 3, 2 ch, ~96.00 kbps avg
General
Complete name: D:\Фильмы\Релизы\air_panic_[tfile.ru].avi
Format: AVI
Format/Info: Audio Video Interleave
File size: 688 MiB
Duration: 1h 26mn
Overall bit rate: 1 109 Kbps
Writing application: Nandub v0.29.1
Writing library: Nandub build 1790/release
Video
ID: 0
Format: MPEG-4 Visual
Codec ID: DIV3
Codec ID/Hint: DivX 3 Low
Duration: 1h 26mn
Bit rate: 1 000 Kbps
Width: 512 pixels
Height: 384 pixels
Display aspect ratio: 4:3
Frame rate: 25.000 fps
Color space: YUV
Chroma subsampling: 4:2:0
Bit depth: 8 bits
Compression mode: Lossy
Bits/(Pixel*Frame): 0.203
Stream size: 620 MiB (90%)
Audio
ID: 1
Format: MPEG Audio
Format version: Version 1
Format profile: Layer 3
Mode: Joint stereo
Mode extension: Intensity Stereo + MS Stereo
Codec ID: 55
Codec ID/Hint: MP3
Duration: 1h 26mn
Bit rate mode: Constant
Bit rate: 96.0 Kbps
Channel(s): 2 channels
Sampling rate: 44.1 KHz
Compression mode: Lossy
Delay relative to video: 23ms
Stream size: 59.5 MiB (9%)
Alignment: Aligned on interleaves
Interleave, duration: 26 ms (0.65 video frame)
Interleave, preload duration: 581 ms









реклама партнёра


Вернуться к началу
 Профиль Отправить личное сообщение  
 
   Похожие торренты   Автор   Торрент   Размер 
В этой теме нет новых непрочитанных сообщений. Комната страха / Panic Room [триллер, драма, криминал, 2002] WEB-DL 720p, Dub+Mvo+Sub

salma3

26 | 6

4.05 ГБ

В этой теме нет новых непрочитанных сообщений. Воздушные змеи / Kites [боевик, триллер, драма, 2010] BDRip, Mvo [Red Media]

salma3

25 | 4

1.88 ГБ

В этой теме нет новых непрочитанных сообщений. Террористы / Kranti Kshetr [боевик, мелодрама, 1994] DVDRip, Avo

salma3

7 | 3

1.72 ГБ

В этой теме нет новых непрочитанных сообщений. Террористы / Captain Nuke and the Bomber Boys [триллер, комедия, 1995] DVDRip, Avo

salma3

40 | 14

1.25 ГБ

В этой теме нет новых непрочитанных сообщений. Panic Era - Panic Era [2013, Alt.Metal,Modern Rock, MP3]

PriZraK

0 | 2

100.7 МБ

В этой теме нет новых непрочитанных сообщений. Виртуоз / The Piano Player [боевик, триллер, драма, криминал, 2002] DVDRip, Mvo

salma3

134 | 3

1.36 ГБ

В этой теме нет новых непрочитанных сообщений. Обнаженное оружие / Chek law dak gung [Боевик, Триллер, Драма, 2002] BDRip, Mvo

salma3

1 | 2

1.45 ГБ


Начать новую тему Ответить на тему  [ 1 сообщение ] 




Для Мосгорсуда, Роскомнадзора и рекламодателей:: mosgorsud-torrent[собачка]yandex.ru