Торрент файл
скачать торрент магнет ссылка Добавлен: 24 авг 2012, 20:55
Размер: 2.19 ГБ
Сидеров: 13
Личеров: 3
Статус: (Dracon)
Автор

СообщениеДобавлено: 24 авг 2012, 20:55 

Не в сети
Зам. Админа
Аватара пользователя
Дата регистрации:
02 дек 2010, 12:39
Спасибо: 12461 / 214
Сообщения: 27968

Год выхода: 2011
Жанр:драма
Режиссер: Жан-Пьер Дарденн, Люк Дарденн
В ролях: Тома Доре, Сесиль де Франс, Жереми Ренье, Эгон ди Матео, Оливье Гурме, Клоди Дельфос, Жан-Мишель Бальтазар, Фредерик Дюссен

Сюжет фильма: Двенадцатилетний Сирил живет одной мыслью: найти своего отца, сдавшего его в детстве в приют. Мальчик убегает из детского дома, чтобы разыскать пропавшего папу. Его ловят, возвращают в приют, но он снова убегает, и тут происходит чудо...
Случайно Сирил знакомится с Самантой, хозяйкой салона причесок, которая соглашается брать его к себе на выходные. Сирил не замечает любви Саманты, любви, в которой так нуждается.

Продолжительность: 01:27:19
Перевод: Профессиональный (Многоголосый закадровый) [Лицензия]
Выпущено: Франция, Италия, Бельгия

Качество: BDRip [720p]
Видео: 1280x688, 3330 Кбит/сек, 24,000 кадр/сек, AVC, x264, 1,860, 0.158 Бит/[Пиксели*Кадры], 2pass
Аудио: AC-3, 256 Кбит/сек, 2 канала(ов), 48,0 КГц
Размер: 2,19 ГБ

Бюджет Фильма: -
Кассовые сборы: $8 889 524

Релиз от:








Общее
Уникальный идентификатор: 242011044596347346056804974803570245622 (0xB611A1BB6B8CB22A93872BC38111BFF6)
Полное имя: E:ЗагрузкиThe.Kid.with.a.Bike.2011.x264.BDRip.720p.MVO.mkv
Формат: Matroska
Версия формата: Version 2
Размер файла: 2,19 Гбайт
Продолжительность: 1 ч. 27 м.
Общий поток: 3587 Кбит/сек
Дата кодирования: UTC 2012-08-23 22:06:29
Программа кодирования: mkvmerge v5.5.0 ('Healer') built on Apr6 2012 21:43:24
Библиотека кодирования: libebml v1.2.3 + libmatroska v1.3.0

Видео
Идентификатор: 1
Формат: AVC
Формат/Информация: Advanced Video Codec
Профиль формата: High@L3.1
Параметр CABAC формата: Да
Параметр ReFrames формата: 4 кадра
Идентификатор кодека: V_MPEG4/ISO/AVC
Продолжительность: 1 ч. 27 м.
Битрейт: 3330 Кбит/сек
Ширина: 1280 пикселей
Высота: 688 пикселей
Соотношение сторон: 1,860
Частота кадров: 24,000 кадра/сек
Цветовое пространство: YUV
Субдискретизация насыщенности: 4:2:0
Битовая глубина: 8 бит
Тип развёртки: Прогрессивная
Бит/(Пиксели*Кадры): 0.158
Размер потока: 1,99 Гбайт (91%)
Заголовок: Мальчик с велосипедом
Библиотека кодирования: x264 core 125 r2208 d9d2288
Настройки программы: cabac=1 / ref=3 / deblock=1:0:0 / analyse=0x3:0x133 / me=hex / subme=7 / psy=1 / psy_rd=1.00:0.00 / mixed_ref=1 / me_range=16 / chroma_me=1 / trellis=1 / 8x8dct=1 / cqm=0 / deadzone=21,11 / fast_pskip=0 / chroma_qp_offset=-2 / threads=12 / lookahead_threads=2 / sliced_threads=0 / nr=0 / decimate=1 / interlaced=0 / bluray_compat=0 / constrained_intra=0 / bframes=3 / b_pyramid=2 / b_adapt=1 / b_bias=0 / direct=1 / weightb=1 / open_gop=0 / weightp=2 / keyint=240 / keyint_min=24 / scenecut=40 / intra_refresh=0 / rc_lookahead=40 / rc=2pass / mbtree=1 / bitrate=3330 / ratetol=1.0 / qcomp=0.60 / qpmin=0 / qpmax=69 / qpstep=4 / cplxblur=20.0 / qblur=0.5 / ip_ratio=1.40 / aq=1:1.00
Язык: English
Default: Да
Forced: Нет

Аудио
Идентификатор: 2
Формат: AC-3
Формат/Информация: Audio Coding 3
Расширение режима: CM (complete main)
Идентификатор кодека: A_AC3
Продолжительность: 1 ч. 27 м.
Вид битрейта: Постоянный
Битрейт: 256 Кбит/сек
Каналы: 2 канала
Расположение каналов: Front: L R
Частота: 48,0 КГц
Битовая глубина: 16 бит
Метод сжатия: С потерями
Размер потока: 160 Мбайт (7%)
Заголовок: Многоголосый закадровый
Язык: Russian
Default: Да
Forced: Нет




реклама партнёра


Вернуться к началу
 Профиль  
 
   Похожие торренты   Автор   Торрент   Размер 
В этой теме нет новых непрочитанных сообщений. Золотой мальчик / Un ragazzo d'oro (Пупи Авати) [Драма, 2014] BDRip 720p, Mvo [Лицензия]

Dracon

12 | 1

3.68 ГБ

В этой теме нет новых непрочитанных сообщений. Мальчик в зеркале / O Menino no Espelho / The Boy in the Mirror [фэнтези, драма, приключения, семейный, 2014] BDRip 720p, avo+sub

Dracon

66 | 7

4.62 ГБ

В этой теме нет новых непрочитанных сообщений. Мальчик-муравей / Antboy [комедия, приключения, семейный, 2013] BDRip 720p, avo+sub

Dracon

26 | 7

3.38 ГБ

В этой теме нет новых непрочитанных сообщений. Золотой мальчик / Un ragazzo d'oro (Пупи Авати) [Драма, 2014] BDRip 1080p, Mvo [Лицензия]

Dracon

3 | 2

6.15 ГБ

В этой теме нет новых непрочитанных сообщений. Мальчик в зеркале / O Menino no Espelho / The Boy in the Mirror [фэнтези, драма, приключения, семейный, 2014] BDRip 1080p, avo+sub

Dracon

41 | 4

7.49 ГБ

В этой теме нет новых непрочитанных сообщений. Мальчик-игрушка / Boy Toy [Комедия, 2011] DVDRip, Mvo

salma3

223 | 11

1.37 ГБ

В этой теме нет новых непрочитанных сообщений. Вот я какой / That's What I Am [Драма, 2011] BDRip 720p, Mvo+Sub

salma3

60 | 2

5.59 ГБ


Начать новую тему Ответить на тему  [ 1 сообщение ] 




Для Мосгорсуда, Роскомнадзора и рекламодателей:: mosgorsud-torrent[собачка]yandex.ru