Торрент файл
скачать торрент магнет ссылка Добавлен: 24 авг 2012, 19:34
Размер: 1.37 ГБ
Сидеров: 205
Личеров: 13
Статус: (Dracon)
Автор

СообщениеДобавлено: 24 авг 2012, 19:34 

Не в сети
Супермодератор
Аватара пользователя
Дата регистрации:
15 фев 2012, 16:44
Возраст: 27
Спасибо: 5143 / 2090
Сообщения: 17475
Информация о фильме
Название: Мальчик в девочке
Оригинальное название: It's a Boy Girl Thing
Страна: Канада, Великобритания
Жанр:комедия, мелодрама
Год выпуска: 2006
Продолжительность: 1:31:02
Перевод: Профессиональный (дублированный)
Cубтитры: нет]
Режиссер: Ник Харран / Nick Hurran
В ролях: Самира Армстронг, Кевин Зегерс, Шерри Миллер, Роберт Джой, Шарон Осборн, Мори Чайкин, Мфо Коахо, Дэн Уарри-Смит, Балаш Коос

Описание: Романтическая комедия, повествующая о двух соседях, девушке и парне, которые являются абсолютными противоположностями по жизни. Кроме того, они являются заклятыми врагами. Однако все меняется, когда однажды утром они обмениваются телами. Их реакция достаточно неожиданна, поначалу они пытаются нанести вред репутации своему новому образу, но наступает момент, когда заключив сделку между собой, они достигают небывалого успеха.

Качество видео: DVDRip -Исходник DVD5
Формат видео: AVI
Видео: Xvid 704x304 25fps 1695kbps
Аудио: Dolby AC3 48000Hz 6ch 448kbps
D:REALISE Y.T.Nits.boy.girl.thing.2006.DVDRip.704x304.dexter lex.avi
General
Complete name : D:REALISE Y.T.Nits.boy.girl.thing.2006.DVDRip.704x304.dexter lex.avi
Format : AVI
Format/Info : Audio Video Interleave
File size : 1.37 GiB
Duration : 1h 31mn
Overall bit rate : 2 151 Kbps
Writing application : VirtualDubMod 1.5.4.1 (build 2178/release)
Writing library : VirtualDubMod build 2178/release
Video #0
ID : 0
Format : MPEG-4 Visual
Format profile : AdvancedSimple@L5
Format settings, BVOP : Yes
Format settings, QPel : No
Format settings, GMC : No warppoints
Format settings, Matrix : Custom
Codec ID : XVID
Codec ID/Hint : XviD
Duration : 1h 31mn
Bit rate : 1 696 Kbps
Width : 704 pixels
Height : 304 pixels
Display aspect ratio : 2.35:1
Frame rate : 25.000 fps
Resolution : 24 bits
Colorimetry : 4:2:0
Scan type : Progressive
Bits/(Pixel*Frame) : 0.317
Stream size : 1.08 GiB (79%)
Writing library : XviD 1.1.2 (UTC 2006-11-01)
Audio #1
ID : 1
Format : AC-3
Format/Info : Audio Coding 3
Codec ID : 2000
Duration : 1h 31mn
Bit rate mode : Constant
Bit rate : 448 Kbps
Channel(s) : 6 channels
Channel positions : Front: L C R, Surround: L R, LFE
Sampling rate : 48.0 KHz
Stream size : 292 MiB (21%)
Alignment : Split accross interleaves
Interleave, duration : 96 ms (2.40 video frames)
Interleave, preload duration : 96 ms
Language : Russian






реклама партнёра


Вернуться к началу
 Профиль Отправить личное сообщение  
 
   Похожие торренты   Автор   Торрент   Размер 
В этой теме нет новых непрочитанных сообщений. Пай-мальчик / Yeled Tov Yerushalyim (Рой Флорентин / Roy Florentin) [2016, Израиль, мелодрама, комедия, HDTVRip] Sub

Alfredovich

4 | 1

701.05 МБ

В этой теме нет новых непрочитанных сообщений. Мальчик-игрушка / Boy Toy [Комедия, 2011] DVDRip, Mvo

salma3

223 | 11

1.37 ГБ

В этой теме нет новых непрочитанных сообщений. Заляпал девочке грудь и ротик [2013 г., Amateur, CamRip]

Dievas2

139 | 3

32.13 МБ

В этой теме нет новых непрочитанных сообщений. Вторая половина / The Other Half [Мелодрама, комедия, 2006] DVDRip, Mvo

salma3

32 | 7

1.45 ГБ

В этой теме нет новых непрочитанных сообщений. Свадьба на Рождество / A Christmas Wedding [Мелодрама,Комедия, 2006] DVDRip, Mvo

salma3

0 | 2

1.37 ГБ

В этой теме нет новых непрочитанных сообщений. Положись на друзей / Friends with Money [драма, мелодрама, комедия, 2006] DVDRip, Mvo

salma3

5 | 2

1.46 ГБ

В этой теме нет новых непрочитанных сообщений. Критический момент / Quarter Life Crisis [Комедия, мелодрама, 2006] DVDRip, Mvo

salma3

12 | 3

1.37 ГБ


Начать новую тему Ответить на тему  [ 1 сообщение ] 




Для Мосгорсуда, Роскомнадзора и рекламодателей:: mosgorsud-torrent[собачка]yandex.ru