Торрент файл
скачать торрент магнет ссылка Добавлен: 17 авг 2012, 09:51
Размер: 1.46 ГБ
Сидеров: 117
Личеров: 6
Статус: (Dracon)
Автор

СообщениеДобавлено: 17 авг 2012, 09:51 

Не в сети
Зам. Админа
Аватара пользователя
Дата регистрации:
02 дек 2010, 12:39
Спасибо: 12461 / 214
Сообщения: 27968

Страны: США, Сингапур, Малайзия, Индонезия
Жанр:фантастика, драма, мелодрама, комедия
Год выпуска: 2012
Продолжительность: 01:36:49

Озвучивание: Дублированное [Лицензия]
Cубтитры: нет

Режиссер: Лорен Скафария

В ролях: Стив Карелл, Кира Найтли, Адам Броди, Дерек Люк, Уильям Л. Питерсен, Роб Кордри, Мартин Шин, Тонита Кастро, Мелани Лински, Пэттон Освальт

Описание: К Земле приближается огромный астероид. В такой момент большинство мужчин пустилось бы во все тяжкие. Но только не Додж. Он отправляется на поиски школьной подружки в компании сексуальной соседки Пенни.







Исходник: DVD5 R5
Качество: DVDRip
Формат: AVI

Видео: 1699 kb/s, 720x304
Аудио: AC3, 448 kb/s (6 ch)

Раздача от:


Format: AVI
Format/Info: Audio Video Interleave
File size: 1.46 GiB
Duration: 1h 36mn
Overall bit rate: 2 158 Kbps
Writing application: VirtualDubMod 1.5.10.2 (build 2542/release)
Writing library: VirtualDubMod build 2542/release

Video
ID: 0
Format: MPEG-4 Visual
Format profile: Advanced Simple@L5
Format settings, BVOP: 2
Format settings, QPel: No
Format settings, GMC: No warppoints
Format settings, Matrix: Default (MPEG)
Codec ID: XVID
Codec ID/Hint: XviD
Duration: 1h 36mn
Bit rate: 1 700 Kbps
Width: 720 pixels
Height: 304 pixels
Display aspect ratio: 2.35:1
Frame rate: 25.000 fps
Color space: YUV
Chroma subsampling: 4:2:0
Bit depth: 8 bits
Scan type: Progressive
Compression mode: Lossy
Bits/(Pixel*Frame): 0.311
Stream size: 1.15 GiB (79%)
Writing library: XviD 1.2.1 (UTC 2008-12-04)

Audio
ID: 1
Format: AC-3
Format/Info: Audio Coding 3
Mode extension: CM (complete main)
Format settings, Endianness: Big
Codec ID: 2000
Duration: 1h 36mn
Bit rate mode: Constant
Bit rate: 448 Kbps
Channel(s): 6 channels
Channel positions: Front: L C R, Side: L R, LFE
Sampling rate: 48.0 KHz
Bit depth: 16 bits
Compression mode: Lossy
Stream size: 310 MiB (21%)
Alignment: Split accross interleaves
Interleave, duration: 40 ms (1.00 video frame)
Interleave, preload duration: 500 ms





реклама партнёра


Вернуться к началу
 Профиль  
 
   Похожие торренты   Автор   Торрент   Размер 
В этой теме нет новых непрочитанных сообщений. Девушка моего лучшего друга / My Best Friend's Girl [мелодрама, комедия, 2008] BDRip 720p, Dub+Sub

salma3

13 | 3

4.5 ГБ

В этой теме нет новых непрочитанных сообщений. Свадьба лучшего друга / My Best Friend's Wedding [мелодрама, комедия, 1997] BDRip 720p, Dub+Sub [лицензия]

salma3

12 | 4

5.77 ГБ

В этой теме нет новых непрочитанных сообщений. Конец света инкорпорейтед / End of Days, Inc. [фантастика, комедия, 2016] HDRip, Avo

salma3

82 | 9

1.57 ГБ

В этой теме нет новых непрочитанных сообщений. Конец света инкорпорейтед / End of Days, Inc. (фантастика, комедия, 2015) HDRip | L1

marya111

154 | 2

1.34 ГБ

В этой теме нет новых непрочитанных сообщений. I Fucked My Best Friend's Girlfirend / Я засадил девчонке лучшего друга (Pure XXX) (Taylor Shay, Brooklyn Blue, Lucia Love, Victoria Summer, Jasmine Jae) [2014 г., All Sex, Oral, BigTits, DVDRip 480p]Split Scenes

friizze

12 | 5

1.22 ГБ

В этой теме нет новых непрочитанных сообщений. Смертельный друг / Deadly Friend [ужасы, фантастика, драма, детектив, 1986] DVDRip, Mvo

salma3

0 | 3

1.37 ГБ

В этой теме нет новых непрочитанных сообщений. Атака титанов. Фильм второй: Конец света / Shingeki no kyojin endo obu za wârudo (Синдзи Хигути ) [фэнтези, боевик, драма, приключения, 2015] WEB-DLRip, Dub [iTunes]

Dracon

11180 | 615

1.37 ГБ


Начать новую тему Ответить на тему  [ 1 сообщение ] 




Для Мосгорсуда, Роскомнадзора и рекламодателей:: mosgorsud-torrent[собачка]yandex.ru