Торрент файл
скачать торрент магнет ссылка Добавлен: 08 авг 2012, 13:02
Размер: 1.37 ГБ
Сидеров: 6
Личеров: 2
Автор

СообщениеДобавлено: 08 авг 2012, 13:02 

В сети
Супермодератор
Аватара пользователя
Дата регистрации:
15 фев 2012, 16:44
Возраст: 28
Спасибо: 6594 / 2145
Сообщения: 44275
Абердин / Aberdeen

Год выпуска: 2000
Страна: Великобритания-Норвегия-Швеция
Жанр:драма
Продолжительность: 106 мин.
Перевод: Любительский (одноголосый)
Русские субтитры: нет
Режиссер: Ханс Петер Моланд

В ролях: Стеллан Скарсгорд, Джин Андерсон, Лина Хеди, Шарлотта Рэмплинг, Луиз Гудолл, Джейсон Хетерингтон, Кэйт Линн Эванс

Описание: Кайза - девушка норвежско-шотландского происхождения. Перед ней открываются блестящие перспективы до тех пор, пока не раздается телефонный звонок от ее матери (Шарлотта Рэмплинг), которая смертельно больна раком и лежит в клинике в Абердине. Теперь Кайзе приходится везти из Норвегии в Шотландию спившегося отца (Cтеллан Скарсгаард) для последней драматической ссоры и последнего прости. Замечательные актерские работы. Лирика и жестокость. Фильм в стиле Рассекая волны и Покидая Лас Вегас.

Сэмпл


Качество: DVDRip
Формат: AVI
Видео: 624x336 (1.86:1), 29.970 fps, DivX Codec 5.2.1 build 1338 ~1708 kbps avg, 0.27 bit/pixel
Аудио: 48 kHz, MPEG Layer 3, 2 ch, ~128.00 kbps avg


General
Complete name: Aberdeen.avi
Format: AVI
Format/Info: Audio Video Interleave
File size: 1.37 GiB
Duration: 1h 46mn
Overall bit rate: 1 848 Kbps
Writing application: FairUse Wizard - http://fairusewizard.com
Writing library: The best and REALLY easy backup tool

Video
ID: 0
Format: MPEG-4 Visual
Format settings, BVOP: No
Format settings, QPel: No
Format settings, GMC: No warppoints
Format settings, Matrix: Default (H.263)
Codec ID: DX50
Codec ID/Hint: DivX 5
Duration: 1h 46mn
Bit rate: 1 709 Kbps
Width: 624 pixels
Height: 336 pixels
Display aspect ratio: 1.857
Frame rate: 29.970 fps
Color space: YUV
Chroma subsampling: 4:2:0
Bit depth: 8 bits
Scan type: Progressive
Compression mode: Lossy
Bits/(Pixel*Frame): 0.272
Stream size: 1.27 GiB (92%)
Writing library: DivX 5.2.1 (DrDivX 106) (UTC 2004-09-08)

Audio
ID: 1
Format: MPEG Audio
Format version: Version 1
Format profile: Layer 3
Mode: Joint stereo
Mode extension: MS Stereo
Codec ID: 55
Codec ID/Hint: MP3
Duration: 1h 46mn
Bit rate mode: Constant
Bit rate: 128 Kbps
Channel(s): 2 channels
Sampling rate: 48.0 KHz
Compression mode: Lossy
Stream size: 97.1 MiB (7%)
Alignment: Aligned on interleaves
Interleave, duration: 33 ms (1.00 video frame)
Interleave, preload duration: 504 ms
Writing library: LAME3.97b
Encoding settings: -m j -V 4 -q 2 -lowpass 17 -b 128





реклама партнёра


Вернуться к началу
 Профиль Отправить личное сообщение  
 
   Похожие торренты   Автор   Торрент   Размер 
В этой теме нет новых непрочитанных сообщений. Фантоцци 2000 – Клонирование / Fantozzi 2000 – La clonazione [Комедия, 1999] DVDRip-AVC, Mvo+Avo

salma3

89 | 49

3.78 ГБ

В этой теме нет новых непрочитанных сообщений. Дама с камелиями 2000 / Camille 2000 [1969, драма, мелодрама] BDRip, Avo

salma3

145 | 34

1.47 ГБ

В этой теме нет новых непрочитанных сообщений. Дракула 2000 / Dracula 2000 [ужасы, фэнтези, боевик, триллер, 2000] BDRip 720p, Dub+Sub

salma3

101 | 8

3.83 ГБ

В этой теме нет новых непрочитанных сообщений. Дракула 2000 / Dracula 2000 [ужасы, фэнтези, боевик, триллер, 2000] BDRip 1080p, Dub+Sub

salma3

54 | 14

9.81 ГБ

В этой теме нет новых непрочитанных сообщений. Дракула 2000 / Dracula 2000 [ужасы, мистика, 2000] BDRemux 1080p, Dub

salma3

27 | 18

11.55 ГБ

В этой теме нет новых непрочитанных сообщений. Дракула 2000 / Dracula 2000 [Ужасы, мистика, 2000] BDRip-AVC, Dub

salma3

112 | 26

745.63 МБ

В этой теме нет новых непрочитанных сообщений. Девушка / The Girl [драма, мелодрама, 2000] DVDRip-AVC, Avo

salma3

27 | 7

2.05 ГБ


Начать новую тему Ответить на тему  [ 1 сообщение ] 




Для Мосгорсуда, Роскомнадзора и рекламодателей:: mosgorsud-torrent[собачка]yandex.ru