Торрент файл
скачать торрент магнет ссылка Добавлен: 07 авг 2012, 14:38
Размер: 748.37 МБ
Сидеров: 4
Личеров: 4
Автор

СообщениеДобавлено: 07 авг 2012, 14:38 

В сети
Супермодератор
Аватара пользователя
Дата регистрации:
15 фев 2012, 16:44
Возраст: 27
Спасибо: 5139 / 2089
Сообщения: 17430

Страна: США
Жанр:ужасы, триллер, драма
Год выпуска: 2011
Продолжительность: 01:40:13

Перевод: Профессиональный (дублированный) лицензия
Cубтитры: нет
Оригинальная аудиодорожка: нет

Режиссер: Эдуардо Санчес / Eduardo Sanchez

В ролях: Гретчен Лодж, Джонни Льюис, Александра Холден, Филд Бловелт, Кен Арнольд, Тони Эллис, Лоурен Лакис, Кэти Фостер, Дэниэл Росс, Тодд Райан Джонс...

Описание: После свадьбы Молли Рейнольдс возвращается в свой давно заброшенный фамильный дом, где страшные воспоминания о кошмарах детства начинают просачиваться в ее новую жизнь. Вскоре она начинает погружаться в пучину зла, размывающего границы между психозом и одержимостью демонами…





Исходник: BDRip 1080p
Качество: HDRip
Формат: AVI

Видео: 640x352 (16:9), 23.976 fps, XVID ~ 907 kbps avg, 0.168 bit/pixel
Аудио: 48 kHz, МР3, 2 ch, 128 kbps

Общее
Полное имя: D:Tracker2012Kroshka.Molly.2011Kroshka.molly.2011.D.HDRip.745MB_[Youtracker].avi
Формат: AVI
Формат/Информация: Audio Video Interleave
Размер файла: 748 Мбайт
Продолжительность: 1 ч. 40 м.
Общий поток: 1044 Кбит/сек
Программа кодирования: VirtualDubMod 1.5.10.3 | http://www.virtualdub-fr.org || (build 2550/release)
Библиотека кодирования: VirtualDubMod build 2550/release

Видео
Идентификатор: 0
Формат: MPEG-4 Visual
Профиль формата: Advanced Simple@L5
Параметр BVOP формата: 4
Параметр QPel формата: Нет
Параметр GMC формата: Без точки перехода
Параметр матрицы формата: Default (MPEG)
Идентификатор кодека: XVID
Идентификатор кодека/Подсказка: XviD
Продолжительность: 1 ч. 40 м.
Битрейт: 907 Кбит/сек
Ширина: 640 пикселей
Высота: 352 пикселя
Соотношение сторон: 16:9
Частота кадров: 23,976 кадра/сек
Цветовое пространство: YUV
Субдискретизация насыщенности: 4:2:0
Битовая глубина: 8 бит
Тип развёртки: Прогрессивная
Метод сжатия: С потерями
Бит/(Пиксели*Кадры): 0.168
Размер потока: 650 Мбайт (87%)
Библиотека кодирования: XviD 1.2.1 (UTC 2008-12-04)

Аудио
Идентификатор: 1
Формат: MPEG Audio
Версия формата: Version 1
Профиль формата: Layer 3
Режим: Joint stereo
Идентификатор кодека: 55
Идентификатор кодека/Подсказка: MP3
Продолжительность: 1 ч. 40 м.
Вид битрейта: Постоянный
Битрейт: 128 Кбит/сек
Каналы: 2 канала
Частота: 48,0 КГц
Метод сжатия: С потерями
Размер потока: 91,8 Мбайт (12%)
Выравнивание: Соединение по промежуткам
Продолжительность промежутка: 42мс. (1,00 видеокадр)
Время предзагрузки промежутка: 504мс.







реклама партнёра


Вернуться к началу
 Профиль Отправить личное сообщение  
 
   Похожие торренты   Автор   Торрент   Размер 
В этой теме нет новых непрочитанных сообщений. Призраки Молли Хартли / The Haunting of Molly Hartley [Ужасы, триллер, драма, 2008] BDRemux 1080р, Dub

salma3

14 | 4

13.55 ГБ

В этой теме нет новых непрочитанных сообщений. Экзорцизм Молли Хартли / The Exorcism of Molly Hartley (Стивен Р. Монро) [Ужасы, 2015] HDRip, dvo

Dracon

5707 | 207

1.46 ГБ

В этой теме нет новых непрочитанных сообщений. Экзорцизм Молли Хартли / The Exorcism of Molly Hartley [ужасы, 2015] BDRip-AVC, Dvo

salma3

51 | 3

1.46 ГБ

В этой теме нет новых непрочитанных сообщений. Экзорцизм Молли Хартли / The Exorcism of Molly Hartley (Стивен Р. Монро) [Ужасы, 2015] BDRip 720p, dvo

Dracon

1765 | 96

2.23 ГБ

В этой теме нет новых непрочитанных сообщений. Майк и Молли / Mike and Molly [S04] (Джеймс Берроуз) [Комедия, 2013] WEB-DLRip [Кураж-Бамбей]

Dracon

77 | 10

5.02 ГБ

В этой теме нет новых непрочитанных сообщений. Майк и Молли / Mike and Molly [S05] (Марк Робертс) [Комедия, 2014–2015] HDTVRip [Кураж-Бамбей]

Dracon

155 | 75

5.01 ГБ

В этой теме нет новых непрочитанных сообщений. Майк и Молли / Mike and Molly [S01-03] (Джеймс Берроуз, Фил Льюис, Марк Робертс) [Комедия, 2010–2013] WEB-DLRip [Кураж-Бамбей]

Dracon

96 | 61

12.14 ГБ


Начать новую тему Ответить на тему  [ 1 сообщение ] 




Для Мосгорсуда, Роскомнадзора и рекламодателей:: mosgorsud-torrent[собачка]yandex.ru