Торрент файл
скачать торрент магнет ссылка Добавлен: 06 авг 2012, 20:59
Размер: 1.46 ГБ
Сидеров: 51
Личеров: 7
Автор

СообщениеДобавлено: 06 авг 2012, 20:59 

Не в сети
Супермодератор
Аватара пользователя
Дата регистрации:
15 фев 2012, 16:44
Возраст: 28
Спасибо: 6589 / 2145
Сообщения: 44145

Информация о фильме
Название: Секса много не бывает
Оригинальное название: Un Heureux Evenement
Год выхода: 2011
Жанр: драма, комедия
Режиссер: Реми Безансон / Remy Besancon
В ролях: Луиз Бургуан, Пио Мармай, Жозиан Баласко, Тьерри Фремон, Габриель Лазюр, Фирмин Ришар, Анаис, Дафна Бюрки, Ланник Готри, Жерар Любин, Николь Вальберг, Луи-До де Ланкесэ, Офелия Керинг, Амели Гленн, Доминик Байенс, Мишель Набокофф, Айссату Диоп, Анник Джонсон, Давид Фонкинос, Эрика Сэйнт, Виктория Бекер, Джульетт Бекер

О фильме:
Семейная пара в ожидании рождения ребенка переживает эмоциональный подъем.

Страна: Франция, Бельгия
Продолжительность: 01:49:28
Перевод: Профессиональный (многоголосый закадровый)

Файл
Кодек: XviD / MP3
Качество: HDRip
Видео: XviD, 720x304 (2.35:1), 24.000 fps, 1452 kbps avg, 0.276 bit/pixel
Звук: ACP3, 48 kHz, 3/2 (L,C,R,l,r) + LFE ch, 448 kbps

Общее
Полное имя : D:Seksa.mnogo.ne.byvaet.2011.MVO.XviD.AC3.HDRip._by.ZNG505_.avi
Формат : AVI
Формат/Информация : Audio Video Interleave
Размер файла : 1,46 Гбайт
Продолжительность : 1 ч. 49 м.
Общий поток : 1909 Кбит/сек
Программа кодирования : VirtualDubMod 1.5.10.3 | http://www.virtualdub-fr.org || (build 2550/release)
Библиотека кодирования : VirtualDubMod build 2550/release

Видео
Идентификатор : 0
Формат : MPEG-4 Visual
Профиль формата : Advanced Simple@L5
Параметр BVOP формата : 2
Параметр QPel формата : Нет
Параметр GMC формата : Без точки перехода
Параметр матрицы формата : Выборочная
Идентификатор кодека : XVID
Идентификатор кодека/Подсказка : XviD
Продолжительность : 1 ч. 49 м.
Битрейт : 1452 Кбит/сек
Ширина : 720 пикселей
Высота : 304 пикселя
Соотношение сторон : 2,35:1
Частота кадров : 24,000 кадра/сек
Цветовое пространство : YUV
Субдискретизация насыщенности : 4:2:0
Битовая глубина : 8 бит
Тип развёртки : Прогрессивная
Метод сжатия : С потерями
Бит/(Пиксели*Кадры) : 0.276
Размер потока : 1,11 Гбайт (76%)
Библиотека кодирования : XviD 65

Аудио
Идентификатор : 1
Формат : AC-3
Формат/Информация : Audio Coding 3
Расширение режима : CM (complete main)
Идентификатор кодека : 2000
Продолжительность : 1 ч. 49 м.
Вид битрейта : Постоянный
Битрейт : 448 Кбит/сек
Каналы : 6 каналов
Расположение каналов : Front: L C R, Side: L R, LFE
Частота : 48,0 КГц
Битовая глубина : 16 бит
Метод сжатия : С потерями
Размер потока : 351 Мбайт (23%)
Выравнивание : Разделение по промежуткам
Продолжительность промежутка : 42 мс. (1,00 видеокадр)
Время предзагрузки промежутка : 500 мс.




реклама партнёра


Вернуться к началу
 Профиль Отправить личное сообщение  
 
   Похожие торренты   Автор   Торрент   Размер 
В этой теме нет новых непрочитанных сообщений. Факап, или Хуже не бывает / Nicht mein Tag (Петер Торварт) [боевик, комедия, криминал, приключения, 2014] HDRip, dub [звук с TS]

Dracon

4 | 0

2.06 ГБ

В этой теме нет новых непрочитанных сообщений. Факап, или Хуже не бывает / Nicht mein Tag (Петер Торварт) [боевик, комедия, криминал, приключения, 2014] HDRip, dub [звук с TS]

Dracon

9 | 0

1.47 ГБ

В этой теме нет новых непрочитанных сообщений. Факап, или Хуже не бывает / Nicht mein Tag (Петер Торварт) [боевик, комедия, криминал, приключения, 2014] HDRip, Dub [iTunes]

Dracon

6 | 0

1.46 ГБ

В этой теме нет новых непрочитанных сообщений. Секреты секса и любви / Kiki, el amor se hace [комедия, 2016] HDRip, Mvo

salma3

407 | 6

1.46 ГБ

В этой теме нет новых непрочитанных сообщений. После секса / After sex [Комедия, драма, мелодрама, 2000] DVDRip-AVC, Dvo

salma3

116 | 51

1.46 ГБ

В этой теме нет новых непрочитанных сообщений. После секса / After sex (Эрик Эмадио) [2007, драма, мелодрама, комедия, BDRip 1080p] avo

Nickolas3435

43 | 11

6.7 ГБ

В этой теме нет новых непрочитанных сообщений. Бывает и хуже / The Middle [S08] [комедия, 2016] WEB-DLRip, Mvo [NewStudio]

salma3

57 | 26

5.52 ГБ


Начать новую тему Ответить на тему  [ 1 сообщение ] 




Для Мосгорсуда, Роскомнадзора и рекламодателей:: mosgorsud-torrent[собачка]yandex.ru