Торрент файл
скачать торрент магнет ссылка Добавлен: 06 авг 2012, 20:54
Размер: 1.37 ГБ
Сидеров: 7
Личеров: 5
Автор

СообщениеДобавлено: 06 авг 2012, 20:54 

Не в сети
Супермодератор
Аватара пользователя
Дата регистрации:
15 фев 2012, 16:44
Возраст: 27
Спасибо: 5135 / 2089
Сообщения: 17405

Информация о фильме
Название: Ванильно-клубничное мороженое
Оригинальное название: Vanille fraise
Год выхода: 1989
Жанр: комедия
Режиссер: Жерар Ури / Gérard Oury
В ролях: Пьер Ардити /Pierre Arditi/, Сабин Азема /Sabine Azéma/, Исааш Де Банколе /Isaach De Bankolé/, Риккардо Кучиолла /Riccardo Cucciolla /, Венантино Венантини /Venantino Venantini/, Жак Перрен /Jacques Perrin/

О фильме:
Кларисса Буланже, в прошлом суперсекретный агент, переживает семейный кризис. Муж Антуан постоянно обманывает ее, но при этом безумно ревнует. Уставшая от переживаний Кларисса решает тряхнуть стариной и соглашается по просьбе своего бывшего шефа выполнить секретное задание.

Вместе с чернокожим агентом спецслужб Ипполитом она должна взорвать итальянское судно, переправляющее оружие для арабских террористов. Кларисса приезжает на Капри, чтобы встретиться с напарником. Ее условный пароль — «Клубника», его — «Ваниль». В целях конспирации агенты должны изображать семейную пару. Но, внезапно появившийся ревнивец — муж чуть было не портит все дело.

Страна: Франция, Италия
Продолжительность: 01:34:19
Перевод: Профессиональный (полное дублирование)

Файл
Кодек: XviD / MP3
Качество: SATRip
Видео: XviD, 640x368 (1.74:1), 25,020 fps, ~1937 kbps avg, 0.329 bit/pixel
Звук: MP3, 48 kHz, 2 ch, 128 kbps

Общее
Полное имя : e:Vaniljno klubnichnoe.avi
Формат : AVI
Формат/Информация : Audio Video Interleave
Размер файла : 1,37 Гбайт
Продолжительность : 1 ч. 34 м.
Общий поток : 2073 Кбит/сек
Программа кодирования : VirtualDubModRus 1.5.10.2 (build 2542/release)
Библиотека кодирования : VirtualDubMod build 2542/release

Видео
Идентификатор : 0
Формат : MPEG-4 Visual
Профиль формата : Advanced Simple@L5
Параметр BVOP формата : 1
Параметр QPel формата : Нет
Параметр GMC формата : Без точки перехода
Параметр матрицы формата : Default (MPEG)
Режим смешивания : Сжатый битовый поток
Идентификатор кодека : XVID
Идентификатор кодека/Подсказка : XviD
Продолжительность : 1 ч. 34 м.
Битрейт : 1937 Кбит/сек
Ширина : 640 пикселей
Высота : 368 пикселей
Соотношение сторон : 16:9
Частота кадров : 25,020 кадров/сек
Частота кадров в оригинале : 25,000 кадров/сек
Цветовое пространство : YUV
Субдискретизация насыщенности : 4:2:0
Битовая глубина : 8 бит
Тип развёртки : Прогрессивная
Метод сжатия : С потерями
Бит/(Пиксели*Кадры) : 0.329
Размер потока : 1,28 Гбайт (93%)
Библиотека кодирования : XviD 1.2.0.dev47 (UTC 2006-11-01)

Аудио
Идентификатор : 1
Формат : MPEG Audio
Версия формата : Version 1
Профиль формата : Layer 3
Режим : Joint stereo
Расширение режима : MS Stereo
Идентификатор кодека : 55
Идентификатор кодека/Подсказка : MP3
Продолжительность : 1 ч. 33 м.
Вид битрейта : Постоянный
Битрейт : 128 Кбит/сек
Каналы : 2 канала
Частота : 32,0 КГц
Метод сжатия : С потерями
Размер потока : 85,4 Мбайт (6%)
Выравнивание : Соединение по промежуткам
Продолжительность промежутка : 40 мс. (1,01 видеокадр)
Время предзагрузки промежутка : 504 мс.




реклама партнёра


Вернуться к началу
 Профиль Отправить личное сообщение  
 
   Похожие торренты   Автор   Торрент   Размер 
В этой теме нет новых непрочитанных сообщений. Ирка сосет и слизывает мороженое с члена [2010 г., Homemade, Oral Sex, CamRip]

Dievas

4 | 2

52.01 МБ

В этой теме нет новых непрочитанных сообщений. Fraise - Siamese Conspiracy [2014, Heavy Metal, Power Metal, MP3]

PriZraK

0 | 1

131.41 МБ

В этой теме нет новых непрочитанных сообщений. Бешеный Джек Пират / Mad Jack the Pirate [S01] [Мультсериал, приключения, комедия, 1988-1989] SATRip, Dub

salma3

25 | 4

3.78 ГБ

В этой теме нет новых непрочитанных сообщений. Private Specials 95 - Lick my Icecream, Bitch / Лизни Мое Мороженое, Сучка (Private) (Lolita Taylor, Carol Vega, Tiffany Doll, Alicia Poz, Amarna Miller.) [2014 г., All Sex, Anal, Oral, Gonzo, BigTits, Hardcore, WEB-DL 720p] Split Scenes

kite

3 | 5

2.7 ГБ

В этой теме нет новых непрочитанных сообщений. Темная башня / Dark Tower [ужасы, триллер, 1989] SATRip, Dvo

salma3

30 | 4

1.57 ГБ

В этой теме нет новых непрочитанных сообщений. Стрелки / Shooters [комедия, 1989] DVDRip, Avo

salma3

6 | 2

814.7 МБ

В этой теме нет новых непрочитанных сообщений. Мы не ангелы / We're No Angels [комедия, криминал, 1989] WEB-DL 720p, Mvo+Avo+Sub

salma3

78 | 6

3.53 ГБ


Начать новую тему Ответить на тему  [ 1 сообщение ] 




Для Мосгорсуда, Роскомнадзора и рекламодателей:: mosgorsud-torrent[собачка]yandex.ru