Торрент файл
скачать торрент магнет ссылка Добавлен: 03 авг 2012, 13:12
Размер: 745.02 МБ
Сидеров: 3
Личеров: 3
Автор

СообщениеДобавлено: 03 авг 2012, 13:12 

В сети
Супермодератор
Аватара пользователя
Дата регистрации:
15 фев 2012, 16:44
Возраст: 27
Спасибо: 5140 / 2090
Сообщения: 17470

Информация о фильме
Название: Дамы в лиловом
Оригинальное название: Ladies in Lavender.
Год выхода: 2004
Жанр: драма, мелодрама, детектив, музыка
Режиссер: Чарльз Дэнс / Charles Dance
В ролях: Джуди Денч /Judi Dench/, Мэгги Смит /Maggie Smith/, Даниэль Брюль /Daniel Brühl/, Фредди Джонс /Freddie Jones/, Грегор Хендерсон-Бегг /Gregor Henderson-Begg/, Мириам Марголис /Miriam Margolyes/, Дэвид Уорнер /David Warner/, Клайв Расселл /Clive Russell/, Ричард Пирс /Richard Pears/, Наташа МакЭлхоун /Natascha McElhone/

О фильме:
Размеренную жизнь двух сестер, Урсулы и Джанет в тихом английском местечке нарушает невероятное событие. Однажды утром после шторма они находят юношу, выброшенного морем на берег.

С этого момента дамы целиком посвящают себя заботе об Андреа, разбудившем в них давно забытые чувства. Но их забавное соперничество приобретает новую окраску с появлением молодой красивой аристократки Ольги.

Страна: Великобритания
Студия: Lakeshore International
Продолжительность: 01:39:33
Перевод: Профессиональный (многоголосый, закадровый)

Файл
Кодек: XviD / MP3
Качество: DVDRip
Видео: XviD, 640x368 (16:9), 25.000 fps, 911 Kbps (0.155 bit/pixel)
Звук: MP3, 48.0 KHz, 2 ch, 128 Kbps, CBR (Russian)


General
Complete name: /media/Ladies in Lavender._DVDRip.MVO.745_[Rutor.org].avi
Format: AVI
Format/Info: Audio Video Interleave
File size: 745 MiB
Duration: 1h 39mn
Overall bit rate: 1 046 Kbps
Writing application: VirtualDubMod 1.5.4.1 (build 2178/release)
Writing library: VirtualDubMod build 2178/release

Video
ID: 0
Format: MPEG-4 Visual
Format profile: Advanced Simple@L5
Format settings, BVOP: 1
Format settings, QPel: No
Format settings, GMC: No warppoints
Format settings, Matrix: Custom
Codec ID: XVID
Codec ID/Hint: XviD
Duration: 1h 39mn
Bit rate: 911 Kbps
Width: 640 pixels
Height: 368 pixels
Display aspect ratio: 1.739
Frame rate: 25.000 fps
Color space: YUV
Chroma subsampling: 4:2:0
Bit depth: 8 bits
Scan type: Progressive
Compression mode: Lossy
Bits/(Pixel*Frame): 0.155
Stream size: 649 MiB (87%)
Writing library: XviD 65

Audio
ID: 1
Format: MPEG Audio
Format version: Version 1
Format profile: Layer 3
Mode: Joint stereo
Codec ID: 55
Codec ID/Hint: MP3
Duration: 1h 39mn
Bit rate mode: Constant
Bit rate: 128 Kbps
Channel(s): 2 channels
Sampling rate: 48.0 KHz
Compression mode: Lossy
Stream size: 91.1 MiB (12%)
Alignment: Aligned on interleaves
Interleave, duration: 80 ms (2.00 video frames)
Interleave, preload duration: 504 ms
Writing library: LAME3.99r
Encoding settings: -m j -V 4 -q 2 -lowpass 17 -b 128
Language: Russian




реклама партнёра


Вернуться к началу
 Профиль Отправить личное сообщение  
 
   Похожие торренты   Автор   Торрент   Размер 
В этой теме нет новых непрочитанных сообщений. Сорок оттенков грусти / Forty Shades of Blue [драма, мелодрама, музыка, 2004] DVDRip, Dvo

salma3

109 | 14

1.48 ГБ

В этой теме нет новых непрочитанных сообщений. Окончательный монтаж – дамы и господа! / Final Cut: Hölgyeim és uraim (Дьёрдь Пальфи) [2012, драма, мелодрама, комедия, эротика, DVDRip]

Nickolas3435

21 | 4

1.37 ГБ

В этой теме нет новых непрочитанных сообщений. Перекресток / Crossroads [драма, мелодрама, детектив, музыка, 1986] DVDRip, Mvo

salma3

10 | 2

1.37 ГБ

В этой теме нет новых непрочитанных сообщений. Где ты, Лулу? / Lulu on the Bridge [драма, мелодрама, детектив, музыка, 1998] DVDRip, Mvo

salma3

17 | 2

1.41 ГБ

В этой теме нет новых непрочитанных сообщений. Красная скрипка / Le Violon rouge [драма, мелодрама, детектив, музыка, 1998] BDRip 720p, Mvo+Sub

salma3

10 | 3

6.97 ГБ

В этой теме нет новых непрочитанных сообщений. Вероника Марс / Veronica Mars / 1-3 сезоны 1-64 серии из 64 [драма, мелодрама, криминал, детектив, 2004-2007] DVDRip, Mvo+Dvo [НТВ / NovaFilm]

salma3

4 | 2

24.77 ГБ

В этой теме нет новых непрочитанных сообщений. Галантные дамы / Dames galantes [Комедия, 1990] DVDRip, Dvo

salma3

69 | 5

1.45 ГБ


Начать новую тему Ответить на тему  [ 1 сообщение ] 




Для Мосгорсуда, Роскомнадзора и рекламодателей:: mosgorsud-torrent[собачка]yandex.ru