Торрент файл
скачать торрент магнет ссылка Добавлен: 01 авг 2012, 10:42
Размер: 2.21 ГБ
Сидеров: 21
Личеров: 3
Статус: (Dracon)
Автор

СообщениеДобавлено: 01 авг 2012, 10:42 

Не в сети
Зам. Админа
Аватара пользователя
Дата регистрации:
02 дек 2010, 12:39
Спасибо: 12458 / 214
Сообщения: 27968

Год выпуска: 2011
Производство: Южная Корея / Lotte Entertainment
Жанр:Боевик, история
Продолжительность:02:02:20
Перевод: Любительский (двухголосый, закадровый)GREEN TEA
Субтитры: Английские, русские
Навигация по главам: Есть


Режиссер: Ким Хан Мин

В ролях: Хае-ил Парк, Сенг-юнг Рио, Рай Хеи Отани, Ким Гу Тхэк

О фильме: В 1636 году полчища манчжуров пришли на земли государства Чосон, неся с собой смерть и разорение. Во время нападения на одну из деревень враги взяли в плен Ча Ин, юную сестру лучника Нам И, и ее жениха Со Гуна. Отважный герой решает во что бы то ни стало отыскать родных и спасти их от незавидной доли рабов в чужой стране. С этой целью он, повесив на спину свой верный лук, доставшийся ему от отца, и колчан со стрелами, отправляется в Китай, преследуя отряд, напавший на его родную деревню. Вскоре слухи о выдающимся лучнике, не знающем поражения, достигают манчжурского войска. Поймать и обезвредить неуловимого Нам И поручают полководцу Джушинта и его людям.





Качество: BDRip-AVC [BDRemux]
Формат: MKV
Видео: H.264, 972x414 (2,35:1), 23,976 кадр/сек, 2138 Кбит/сек, 0.222 bit/pixel
Аудио: 48 kHz, AC3 Dolby Digital, 3/2 (L,C,R,l,r) + LFE ch, ~448.00 kbps avg


Автор рипа: potroks



Общее
Уникальный идентификатор: 174067292725113370293711301142899194132 (0x82F42421BC6E74A09EB141496089F914)
Полное имя: Strela.Absolyutnoe.Oruzhie.2011.L2.BDRip.x264.potroks.mkv
Формат: Matroska
Версия формата: Version 2
Размер файла: 2,21 Гбайт
Продолжительность: 2 ч. 2 м.
Общий поток: 2587 Кбит/сек
Название фильма: -=POTROKS=-
Дата кодирования: UTC 2012-07-31 19:32:49
Программа кодирования: mkvmerge v5.6.0 ('Kenya Kane') built on May 27 2012 16:44:04
Библиотека кодирования: libebml v1.2.3 + libmatroska v1.3.0

Видео
Идентификатор: 1
Формат: AVC
Формат/Информация: Advanced Video Codec
Профиль формата: High@L3.2
Параметр CABAC формата: Да
Параметр ReFrames формата: 10 кадров
Идентификатор кодека: V_MPEG4/ISO/AVC
Продолжительность: 2 ч. 2 м.
Битрейт: 2138 Кбит/сек
Ширина: 972 пикселя
Высота: 414 пикселей
Соотношение сторон: 2,35:1
Частота кадров: 23,976 кадра/сек
Цветовое пространство: YUV
Субдискретизация насыщенности: 4:2:0
Битовая глубина: 8 бит
Тип развёртки: Прогрессивная
Бит/(Пиксели*Кадры): 0.222
Размер потока: 1,78 Гбайт (81%)
Заголовок: Strela.Absolyutnoe.Oruzhie.2011.L2.BDRip.x264.potroks
Библиотека кодирования: x264 core 125 r2200 999b753
Настройки программы: cabac=1 / ref=10 / deblock=1:-2:-1 / analyse=0x3:0x133 / me=umh / subme=11 / psy=1 / psy_rd=1.00:0.08 / mixed_ref=1 / me_range=32 / chroma_me=1 / trellis=2 / 8x8dct=1 / cqm=0 / deadzone=21,11 / fast_pskip=0 / chroma_qp_offset=-3 / threads=6 / lookahead_threads=1 / sliced_threads=0 / nr=0 / decimate=0 / interlaced=0 / bluray_compat=0 / constrained_intra=0 / bframes=11 / b_pyramid=2 / b_adapt=2 / b_bias=0 / direct=3 / weightb=1 / open_gop=0 / weightp=2 / keyint=240 / keyint_min=23 / scenecut=40 / intra_refresh=0 / rc_lookahead=60 / rc=2pass / mbtree=0 / bitrate=2138 / ratetol=1.0 / qcomp=0.70 / qpmin=10 / qpmax=51 / qpstep=4 / cplxblur=20.0 / qblur=0.5 / vbv_maxrate=20000 / vbv_bufsize=20000 / nal_hrd=none / ip_ratio=1.35 / pb_ratio=1.25 / aq=2:2.00
Язык: English
Default: Да
Forced: Нет

Аудио
Идентификатор: 2
Формат: AC-3
Формат/Информация: Audio Coding 3
Расширение режима: CM (complete main)
Идентификатор кодека: A_AC3
Продолжительность: 2 ч. 2 м.
Вид битрейта: Постоянный
Битрейт: 448 Кбит/сек
Каналы: 6 каналов
Расположение каналов: Front: L C R, Side: L R, LFE
Частота: 48,0 КГц
Битовая глубина: 16 бит
Метод сжатия: С потерями
Размер потока: 392 Мбайт (17%)
Заголовок: DVO - GREEN TEA
Язык: Russian
Default: Да
Forced: Да

Текст #1
Идентификатор: 3
Формат: UTF-8
Идентификатор кодека: S_TEXT/UTF8
Идентификатор кодека/Информация: UTF-8 Plain Text
Язык: English
Default: Нет
Forced: Нет

Текст #2
Идентификатор: 4
Формат: UTF-8
Идентификатор кодека: S_TEXT/UTF8
Идентификатор кодека/Информация: UTF-8 Plain Text
Язык: Russian
Default: Нет
Forced: Нет

Меню
00:00:00.000: en:00:00:00.000
00:06:44.154: en:00:06:44.154
00:10:35.635: en:00:10:35.635
00:15:49.991: en:00:15:49.991
00:21:14.273: en:00:21:14.273
00:27:15.676: en:00:27:15.676
00:33:40.977: en:00:33:40.977
00:41:32.573: en:00:41:32.573
00:48:50.094: en:00:48:50.094
00:54:07.411: en:00:54:07.411
01:04:06.009: en:01:04:06.009
01:11:16.314: en:01:11:16.314
01:19:31.433: en:01:19:31.433
01:26:06.536: en:01:26:06.536
01:32:53.443: en:01:32:53.443
01:38:57.723: en:01:38:57.723
01:47:06.128: en:01:47:06.128
01:58:28.977: en:01:58:28.977

x264 [info]: frame I:1955Avg QP:19.50size: 53348
x264 [info]: frame P:44655 Avg QP:22.18size: 17954
x264 [info]: frame B:129214 Avg QP:22.30size:8152
x264 [info]: consecutive B-frames:4.6%4.9% 13.0% 24.2% 15.3% 29.9%3.8%1.2%1.4%0.4%0.3%0.9%
x264 [info]: mb II16..4:7.5% 69.6% 22.9%
x264 [info]: mb PI16..4:1.3% 21.2%3.2%P16..4: 29.3% 30.0%7.2%2.5%0.2%skip: 5.2%
x264 [info]: mb BI16..4:0.2%3.6%0.5%B16..8: 34.7% 22.3%3.9%direct: 6.4%skip:28.4%L0:42.7% L1:47.1% BI:10.2%
x264 [info]: 8x8 transform intra:81.3% inter:59.8%
x264 [info]: direct mvsspatial:98.8% temporal:1.2%
x264 [info]: coded y,uvDC,uvAC intra: 89.0% 70.9% 34.8% inter: 29.5% 17.1% 4.5%
x264 [info]: i16 v,h,dc,p: 24% 11%9% 55%
x264 [info]: i8 v,h,dc,ddl,ddr,vr,hd,vl,hu:6%6%5% 10% 15% 14% 15% 13% 15%
x264 [info]: i4 v,h,dc,ddl,ddr,vr,hd,vl,hu:7%7%4%9% 16% 15% 16% 11% 14%
x264 [info]: i8c dc,h,v,p: 36% 28% 19% 18%
x264 [info]: Weighted P-Frames: Y:5.0% UV:2.6%
x264 [info]: ref P L0: 55.6% 10.0% 14.0%6.3%4.4%3.3%2.5%1.5%1.2%1.0%0.2%0.0%
x264 [info]: ref B L0: 77.1% 11.8%4.9%2.3%1.5%1.1%0.8%0.4%0.2%
x264 [info]: ref B L1: 94.3%5.7%
x264 [info]: kb/s:2137.47



















реклама партнёра


Вернуться к началу
 Профиль  
 
   Похожие торренты   Автор   Торрент   Размер 
В этой теме нет новых непрочитанных сообщений. Самое странное оружие мира [документальный, оружие, история, 2012] HDTVRip, Avo

salma3

31 | 11

4.08 ГБ

В этой теме нет новых непрочитанных сообщений. Сломанная стрела / Broken Arrow [Триллер, приключения, боевик, 1996] BDRip 1080p, 3Mvo+2Avo

salma3

29 | 9

7.75 ГБ

В этой теме нет новых непрочитанных сообщений. Ответный огонь / Choi saan gong woo [Боевик, 1990] DVDRip, Avo

salma3

4 | 0

2.05 ГБ

В этой теме нет новых непрочитанных сообщений. Совершенное оружие / The Perfect Weapon [боевик, драма, 1991] BDRip, 2AVO

salma3

14 | 1

1.45 ГБ

В этой теме нет новых непрочитанных сообщений. Совершенное оружие / The Perfect Weapon [боевик, драма, 1991] BDRip-AVC, 3Avo

salma3

45 | 6

2.18 ГБ

В этой теме нет новых непрочитанных сообщений. Обнаженное оружие / Chek law dak gung [Боевик, Триллер, Драма, 2002] BDRip, Mvo

salma3

1 | 2

1.45 ГБ

В этой теме нет новых непрочитанных сообщений. Обнаженное оружие / Chek law dak gung / Naked Weapon [Боевик, триллер, 2002] BDRip, Mvo [КПК]

salma3

18 | 3

414.16 МБ


Начать новую тему Ответить на тему  [ 1 сообщение ] 




Для Мосгорсуда, Роскомнадзора и рекламодателей:: mosgorsud-torrent[собачка]yandex.ru