Торрент файл
скачать торрент магнет ссылка Добавлен: 31 июл 2012, 11:05
Размер: 2.19 ГБ
Сидеров: 0
Личеров: 2
Статус: (Dracon)
Автор

СообщениеДобавлено: 31 июл 2012, 11:05 

Не в сети
Зам. Админа
Аватара пользователя
Дата регистрации:
02 дек 2010, 12:39
Спасибо: 12461 / 214
Сообщения: 27968

Год выпуска: 2011
Страна:Франция (Canal+ [fr], Ciné Cinémas)
Жанр:драма, спорт
Продолжительность: 01:38:12
Перевод: Многоголосый закадровый R5
Оригинальная аудиодорожка: нет
Субтитры: нет

Режиссер: Режис Варнье / Régis Wargnier

В ролях: Рашида Бракни, Сирил Дескур, Клементин Селарье, Сейдина Балде, Тьерри Годар, Грегори Гадебуа, Gautier Trésor Makunda, Aladji Ba, Ромейн Гупил, Григорий Аксельрод...

Описание: Проведя пять лет в тюрьме, Лейла выходит на свободу. Она встречает молодого атлета Янника, который потерял зрение после несчастного случая. Несмотря на свою инвалидность, он продолжает практиковаться в беге, но ему нужен спутник-поводырь. Будучи когда-то сама атлетом, Лейла решает помочь ему.





Исходник: BDRip 720p
Качество: HDRip-AVC
Формат: MKV

Видео: 1024x556 (1,85:1), 24 fps, XviD ~ 2669 kbps avg, 0.195 bit/pixel
Аудио: 48 kHz, AC3, 6 ch, 384.00 kbps

Раздача от:


Общее
Полное имя: Finishnaya.pryamaya.2011.P.HDRip-AVC.mkv
Формат: Matroska
Версия формата: Version 2
Размер файла: 2,19 Гбайт
Продолжительность: 1 ч. 42 м.
Общий поток: 3054 Кбит/сек
Дата кодирования: UTC 2012-05-23 17:49:32
Программа кодирования: mkvmerge v5.0.1 ('Es ist Sommer') built on Nov6 2011 16:23:40
Библиотека кодирования: libebml v1.2.2 + libmatroska v1.3.0

Видео
Идентификатор: 1
Формат: AVC
Формат/Информация: Advanced Video Codec
Профиль формата: High@L4.1
Параметр CABAC формата: Да
Параметр ReFrames формата: 11 кадров
Идентификатор кодека: V_MPEG4/ISO/AVC
Продолжительность: 1 ч. 42 м.
Битрейт: 2669 Кбит/сек
Ширина: 1024 пикселя
Высота: 556 пикселей
Соотношение сторон: 1,85:1
Частота кадров: 24,000 кадра/сек
Цветовое пространство: YUV
Субдискретизация насыщенности: 4:2:0
Битовая глубина: 8 бит
Тип развёртки: Прогрессивная
Бит/(Пиксели*Кадры): 0.195
Размер потока: 1,87 Гбайт (85%)
Библиотека кодирования: x264 core 119 r2106 07efeb4
Настройки программы: cabac=1 / ref=11 / deblock=1:-2:-1 / analyse=0x3:0x113 / me=umh / subme=9 / psy=1 / psy_rd=1.00:0.10 / mixed_ref=1 / me_range=32 / chroma_me=1 / trellis=2 / 8x8dct=1 / cqm=0 / deadzone=21,11 / fast_pskip=1 / chroma_qp_offset=-3 / threads=6 / sliced_threads=0 / nr=0 / decimate=1 / interlaced=0 / bluray_compat=0 / constrained_intra=0 / bframes=10 / b_pyramid=2 / b_adapt=2 / b_bias=0 / direct=3 / weightb=1 / open_gop=0 / weightp=2 / keyint=240 / keyint_min=23 / scenecut=40 / intra_refresh=0 / rc_lookahead=80 / rc=2pass / mbtree=1 / bitrate=2669 / ratetol=1.0 / qcomp=0.60 / qpmin=0 / qpmax=69 / qpstep=4 / cplxblur=20.0 / qblur=0.5 / ip_ratio=1.40 / aq=2:0.90
Default: Да
Forced: Нет

Аудио
Идентификатор: 2
Формат: AC-3
Формат/Информация: Audio Coding 3
Расширение режима: CM (complete main)
Параметр Endianness формата: Big
Идентификатор кодека: A_AC3
Продолжительность: 1 ч. 42 м.
Вид битрейта: Постоянный
Битрейт: 384 Кбит/сек
Каналы: 6 каналов
Расположение каналов: Front: L C R, Side: L R, LFE
Частота: 48,0 КГц
Битовая глубина: 16 бит
Метод сжатия: С потерями
Размер потока: 281 Мбайт (13%)
Default: Да
Forced: Нет






реклама партнёра


Вернуться к началу
 Профиль  
 
   Похожие торренты   Автор   Торрент   Размер 
В этой теме нет новых непрочитанных сообщений. На линии огня / Ligne de mire [Триллер, драма, 2014] HDTV 1080i, Mvo

salma3

78 | 10

6.45 ГБ

В этой теме нет новых непрочитанных сообщений. Прямая и явная угроза / Clear and Present Danger [боевик, триллер, драма, 1994] BDRip, Mvo

salma3

47 | 5

1.45 ГБ

В этой теме нет новых непрочитанных сообщений. Однажды в Версале / Bancs publics / Versailles rive droite [Комедия, 2009] HDTV 1080i, Mvo

salma3

25 | 6

7.55 ГБ

В этой теме нет новых непрочитанных сообщений. Грэйси / Gracie [Драма, Спорт, 2007] HDRip, Mvo

salma3

0 | 2

1.47 ГБ

В этой теме нет новых непрочитанных сообщений. Хоум Ран / Home Run [Драма, спорт, 2013] HDRip, Mvo

Dracon

148 | 2

2.05 ГБ

В этой теме нет новых непрочитанных сообщений. Вудлон / Woodlawn [Драма, спорт, 2015] HDRip, dvo

Dracon

252 | 14

1.37 ГБ

В этой теме нет новых непрочитанных сообщений. Чемпионы [Драма, спорт, 2014] HDRip [Лицензия]

Dracon

276 | 5

1.46 ГБ


Начать новую тему Ответить на тему  [ 1 сообщение ] 




Для Мосгорсуда, Роскомнадзора и рекламодателей:: mosgorsud-torrent[собачка]yandex.ru