Торрент файл
скачать торрент магнет ссылка Добавлен: 27 июл 2012, 15:21
Размер: 1.46 ГБ
Сидеров: 62
Личеров: 3
Статус: (Dracon)
Автор

СообщениеДобавлено: 27 июл 2012, 15:21 

Не в сети
Зам. Админа
Аватара пользователя
Дата регистрации:
02 дек 2010, 12:39
Спасибо: 12460 / 214
Сообщения: 27968

Страна: США
Жанр:драма, комедия
Год выпуска: 2012
Продолжительность: 01:29:52

Перевод: Профессиональный (дублированный) Лицензия
Cубтитры: нет
Оригинальная аудиодорожка: нет

Режиссер: Уэс Андерсон / Wes Anderson

В ролях: Брюс Уиллис, Эдвард Нортон, Билл Мюррей, Кара Хэйуорд, Джаред Гилман, Джейсон Шварцман, Тильда Суинтон, Фрэнсис МакДорманд, Харви Кейтель, Боб Бэлабан...

Роли дублировали: Алексей Иващенко, Сергей Смирнов, Владимир Антоник, Лиза Мартиросова, Ефим Клиновский...

Описание: После таинственного исчезновения мальчишки и девчонки из лагеря бойскаутов принципиальный шериф ставит на уши весь город. Свое альтернативное расследование начинает тренер бойскаутов. Мамаша девушки бьется в истерике, а отец, кажется, что-то скрывает… Ведь у каждого в жизни бывает первая любовь.





Исходник: DVD9 R5
Качество: DVDRip
Формат: AVI

Видео: 720x400 (16:9), 25 fps, XVID ~ 1933 kbps avg, 0.268 bit/pixel
Аудио: 48 kHz, AC3, 6 ch, 384 kbps

Раздача от:


Общее
Полное имя: Korolevstvo.polnoi.luny.2012.D.DVDRip_[Youtracker].avi
Формат: AVI
Формат/Информация: Audio Video Interleave
Размер файла: 1,46 Гбайт
Продолжительность: 1 ч. 29 м.
Общий поток: 2327 Кбит/сек
Программа кодирования: VirtualDubMod 1.5.10.2 (build 2540/release)
Библиотека кодирования: VirtualDubMod build 2540/release

Видео
Идентификатор: 0
Формат: MPEG-4 Visual
Профиль формата: Advanced Simple@L5
Параметр BVOP формата: 2
Параметр QPel формата: Нет
Параметр GMC формата: Без точки перехода
Параметр матрицы формата: Выборочная
Идентификатор кодека: XVID
Идентификатор кодека/Подсказка: XviD
Продолжительность: 1 ч. 29 м.
Битрейт: 1933 Кбит/сек
Ширина: 720 пикселей
Высота: 400 пикселей
Соотношение сторон: 16:9
Частота кадров: 25,000 кадров/сек
Цветовое пространство: YUV
Субдискретизация насыщенности: 4:2:0
Битовая глубина: 8 бит
Тип развёртки: Прогрессивная
Метод сжатия: С потерями
Бит/(Пиксели*Кадры): 0.268
Размер потока: 1,21 Гбайт (83%)
Библиотека кодирования: XviD 1.2.1 (UTC 2008-12-04)

Аудио
Идентификатор: 1
Формат: AC-3
Формат/Информация: Audio Coding 3
Расширение режима: CM (complete main)
Параметр Endianness формата: Big
Идентификатор кодека: 2000
Продолжительность: 1 ч. 29 м.
Вид битрейта: Постоянный
Битрейт: 384 Кбит/сек
Каналы: 6 каналов
Расположение каналов: Front: L C R, Side: L R, LFE
Частота: 48,0 КГц
Битовая глубина: 16 бит
Метод сжатия: С потерями
Задержка видео: 1 с. 815 мс.
Размер потока: 247 Мбайт (16%)
Выравнивание: Разделение по промежуткам
Продолжительность промежутка: 40мс. (1,00 видеокадр)
Время предзагрузки промежутка: 500мс.






реклама партнёра


Вернуться к началу
 Профиль  
 
   Похожие торренты   Автор   Торрент   Размер 
В этой теме нет новых непрочитанных сообщений. Королевство / Kingdom [S01] [Драма, 2014] HDTVRip [NewStudio]

Dracon

641 | 164

5.66 ГБ

В этой теме нет новых непрочитанных сообщений. Королевство / Kingdom [S01] [Драма, 2014] HDTVRip 720p [NewStudio]

Dracon

218 | 73

12.75 ГБ

В этой теме нет новых непрочитанных сообщений. Королевство / Kingdom [02х01-09 из 10] (Адам Дэвидсон, Гэри Фледер, Дэнни Гордон) [2015, Драма, WEB-DL 720p | NewStudio]

Dracon

0 | 7

14.58 ГБ

В этой теме нет новых непрочитанных сообщений. Последнее королевство / The Last Kingdom [S01] (Энтони Бирн и Бен Чанан) [2015, История, боевик, драма, HDTVRip | Victory-Films]

Dracon

813 | 674

4.89 ГБ

В этой теме нет новых непрочитанных сообщений. Последнее королевство / The Last Kingdom [S01] (Энтони Бирн, Бен Чанан, Питер Хор) [2015, Боевик, Драма, Исторический, WEB-DL 720p | AlexFilm]

Nickolas3435

126 | 150

15.72 ГБ

В этой теме нет новых непрочитанных сообщений. Последнее королевство / The Last Kingdom [S01] (Энтони Бирн, Бен Чанан, Питер Хор) [2015, Боевик, Драма, Исторический, WEB-DL 1080p | NewStudio]

Dracon

210 | 263

19.31 ГБ

В этой теме нет новых непрочитанных сообщений. Последнее королевство / The Last Kingdom [01х01-06 из 08] (Энтони Бирн, Бен Чанан, Питер Хор) [2015, Боевик, Драма, Исторический, WEB-DL 720p | NewStudio]

Dracon

80 | 429

11.77 ГБ


Начать новую тему Ответить на тему  [ 1 сообщение ] 




Для Мосгорсуда, Роскомнадзора и рекламодателей:: mosgorsud-torrent[собачка]yandex.ru