Торрент файл
скачать торрент магнет ссылка Добавлен: 27 июл 2012, 14:54
Размер: 1.46 ГБ
Сидеров: 270
Личеров: 10
Автор

СообщениеДобавлено: 27 июл 2012, 14:54 

Не в сети
Зам. Админа
Аватара пользователя
Дата регистрации:
02 дек 2010, 12:39
Спасибо: 12461 / 214
Сообщения: 27968
«От любви до ненависти...Одна SMS»

Страна: США
Жанр:драма, мелодрама, комедия
Год выпуска: 2012
Продолжительность: 01:36:46

Перевод: Профессиональный (дублированный) Лицензия
Cубтитры: нет
Оригинальная аудиодорожка: нет

Режиссер: Лиза Азуэлос / Lisa Azuelos

В ролях: Майли Сайрус, Деми Мур, Эшли Грин, Адам Дж. Севани, Жан-Люк Билодо, Томас Джейн, Дуглас Бут, Джина Гершон, Фишер Стивенс, Остин Николс...

Роли дублировали: Даниил Эльдаров, Вероника Саркисова

Описание: Лола или Лол, как ее зовут друзья, живет в пригороде Чикаго, как и все, прогуливает занятия, чатится с подругами, устраивает вечеринки и мечтает о настоящей любви. Поездка в Париж — это шанс для Лолы и ее одноклассников оторваться по полной. Безудержный шопинг, бесконтрольные ночные вылазки и первое романтическое свидание — все это оказывается под угрозой. Ведь мать Лолы, мягко говоря, не обрадована результатами ее экзаменов.





Исходник: BDRip 720p
Качество: HDRip
Формат: AVI

Видео: 720x304 (2.35:1), 23.976 fps, XVID ~ 1700 kbps avg, 0.324 bit/pixel
Аудио: 48 kHz, AC3, 6 ch, 448 kbps

Раздача от:


Общее
Полное имя: Leto.Odnoklassniki.Lybov.2012.D.HDRip_[Youtracker].avi
Формат: AVI
Формат/Информация: Audio Video Interleave
Размер файла: 1,46 Гбайт
Продолжительность: 1 ч. 36 м.
Общий поток: 2157 Кбит/сек
Программа кодирования: VirtualDubMod 1.5.10.2 (build 2542/release)
Библиотека кодирования: VirtualDubMod build 2542/release

Видео
Идентификатор: 0
Формат: MPEG-4 Visual
Профиль формата: Advanced Simple@L5
Параметр BVOP формата: 2
Параметр QPel формата: Нет
Параметр GMC формата: Без точки перехода
Параметр матрицы формата: Default (MPEG)
Идентификатор кодека: XVID
Идентификатор кодека/Подсказка: XviD
Продолжительность: 1 ч. 36 м.
Битрейт: 1700 Кбит/сек
Ширина: 720 пикселей
Высота: 304 пикселя
Соотношение сторон: 2,35:1
Частота кадров: 23,976 кадра/сек
Цветовое пространство: YUV
Субдискретизация насыщенности: 4:2:0
Битовая глубина: 8 бит
Тип развёртки: Прогрессивная
Метод сжатия: С потерями
Бит/(Пиксели*Кадры): 0.324
Размер потока: 1,15 Гбайт (79%)
Библиотека кодирования: XviD 1.2.1 (UTC 2008-12-04)

Аудио
Идентификатор: 1
Формат: AC-3
Формат/Информация: Audio Coding 3
Расширение режима: CM (complete main)
Параметр Endianness формата: Big
Идентификатор кодека: 2000
Продолжительность: 1 ч. 36 м.
Вид битрейта: Постоянный
Битрейт: 448 Кбит/сек
Каналы: 6 каналов
Расположение каналов: Front: L C R, Side: L R, LFE
Частота: 48,0 КГц
Битовая глубина: 16 бит
Метод сжатия: С потерями
Задержка видео: 930 мс.
Размер потока: 310 Мбайт (21%)
Выравнивание: Разделение по промежуткам
Продолжительность промежутка: 42мс. (1,00 видеокадр)
Время предзагрузки промежутка: 500мс.






реклама партнёра


Вернуться к началу
 Профиль  
 
   Похожие торренты   Автор   Торрент   Размер 
В этой теме нет новых непрочитанных сообщений. Питер. Лето. Любовь [Драма, мелодрама, 2014] WEB-DL 1080p [Лицензия]

Dracon

54 | 2

2.7 ГБ

В этой теме нет новых непрочитанных сообщений. Питер. Лето. Любовь [Драма, мелодрама, 2014] WEB-DL 720p [Лицензия]

Dracon

83 | 6

1.49 ГБ

В этой теме нет новых непрочитанных сообщений. Питер. Лето. Любовь [Драма, мелодрама, 2014] WEB-DLRip, Mvo [iTunes]

Dracon

48 | 3

1.37 ГБ

В этой теме нет новых непрочитанных сообщений. Одноклассники.ru: НаCLICKай удачу [мелодрама, комедия, 2013] HDRip [Лицензия]

Dracon

957 | 47

1.46 ГБ

В этой теме нет новых непрочитанных сообщений. Любовь в словах и картинах / Любовь в словах и картинках / Words and Pictures [драма, мелодрама, комедия, 2013] HDRip, Dub [НТВ]

Dracon

244 | 18

1.45 ГБ

В этой теме нет новых непрочитанных сообщений. Моя любовь / Premam [Комедия, драма, мелодрама, 2015] HDRip, Mvo

salma3

251 | 94

2.05 ГБ

В этой теме нет новых непрочитанных сообщений. Наше лето / La belle saison [Драма, мелодрама, 2015] HDRip, dvo

Dracon

57 | 8

1.37 ГБ


Начать новую тему Ответить на тему  [ 1 сообщение ] 




Для Мосгорсуда, Роскомнадзора и рекламодателей:: mosgorsud-torrent[собачка]yandex.ru