Торрент файл
скачать торрент магнет ссылка Добавлен: 19 июл 2012, 13:31
Размер: 1.79 ГБ
Сидеров: 0
Личеров: 2
Автор

СообщениеДобавлено: 19 июл 2012, 13:36 

Не в сети
Дата регистрации:
05 июл 2012, 12:26
Спасибо: 2 / 0
Сообщения: 2


Студия 54 / Studio 54


Год выпуска: 1998
Страна: США
Жанр: драма, история
Продолжительность: 01:36:13.839
Перевод: Профессиональный (многоголосый, закадровый) + Оригинал(Отдельно)

Режиссер: Марк Кристофер
Продюссер: Дон Кармоди, Лила Якоб, Бобби Коэн
Сценарий: Марк Кристофер

Бюджет: $13 000 000
Премьера в мире: 28 августа 1998




В ролях: Райан Филипп /Ryan Phillippe/, Сальма Хайeк /Salma Hayek/, Нив Кэмпбелл /Neve Campbell/, Майк Майерс /Mike Myers/, Брекин Меер /Breckin Meyer/, Шерри Стрингфилд /Sherry Stringfield/

Описание: Студия 54 - самый популярный ночной клуб Нью-Йорка. Случайно попасть сюда невозможно. Но оказавшись однажды, хочется остаться здесь навсегда. Это история о знаменитом вертепе и его людях. О простом парне, чудом оказавшемся здесь. О наркотиках и беспорядочном сексе. О попытках заставить мечты сбыться любой ценой. Об оборотной стороне славы. О любви и разочарованиях. А также о последствиях всего вышеперечисленного...

http://multi-up.com/712777

Качество: DVDRip
Формат: AVI
Видео кодек: XviD
Аудио кодек: AC3
Видео: 704x512 (1.38:1), 25 fps, XviD MPEG-4 ~2268 kbps avg, 0.25 bit/pixel
Аудио#1: 48 kHz, AC3 Dolby Digital, 2/0 (L,R) ch, ~192.00 kbps avg
Аудио#2: 48 kHz, AC3 Dolby Digital, 2/0 (L,R) ch, ~192.00 kbps avg


Общее
Полное имя : D:\_TORRENTS\Studiy54.1996\Studiy54.1996.avi
Формат : AVI
Формат/Информация : Audio Video Interleave
Размер файла : 1,79 Гбайт
Продолжительность : 1 ч. 36 м.
Общий поток : 2668 Кбит/сек
Программа кодирования : VirtualDubMod 1.5.10.2 (build 2540/release)
Библиотека кодирования : VirtualDubMod build 2540/release

Видео
Идентификатор : 0
Формат : MPEG-4 Visual
Профиль формата : Advanced Simple@L5
Параметр BVOP формата : 1
Параметр QPel формата : Нет
Параметр GMC формата : Без точки перехода
Параметр матрицы формата : Default (MPEG)
Режим смешивания : Сжатый битовый поток
Идентификатор кодека : DX50
Идентификатор кодека/Подсказка : DivX 5
Продолжительность : 1 ч. 36 м.
Битрейт : 2269 Кбит/сек
Ширина : 704 пикс.
Высота : 512 пикс.
Соотношение сторон : 1,375
Частота кадров : 25,000 кадр/сек
Цветовое пространство : YUV
Подвыборка цветности : 4:2:0
Битовая глубина : 8 бит
Тип развёртки : Прогрессивная
Метод сжатия : С потерями
Бит/(Пиксели*Кадры) : 0.252
Размер потока : 1,53 Гбайт (85%)
Библиотека кодирования : XviD 1.2.0.dev47 (UTC 2006-11-01)

Аудио #1
Идентификатор : 1
Формат : AC-3
Формат/Информация : Audio Coding 3
Расширение режима : CM (complete main)
Идентификатор кодека : 2000
Продолжительность : 1 ч. 36 м.
Вид битрейта : Постоянный
Битрейт : 192 Кбит/сек
Каналы : 3 канала
Расположение каналов : Front: L R, LFE
Частота : 48,0 КГц
Битовая глубина : 16 бит
Метод сжатия : С потерями
Размер потока : 132 Мбайт (7%)
Выравнивание : Разделение по промежуткам
Продолжительность промежутка : 40 мс. (1,00 видеокадр)
Время предзагрузки промежутка : 500 ms

Аудио #2
Идентификатор : 2
Формат : AC-3
Формат/Информация : Audio Coding 3
Расширение режима : CM (complete main)
Идентификатор кодека : 2000
Продолжительность : 1 ч. 36 м.
Вид битрейта : Постоянный
Битрейт : 192 Кбит/сек
Каналы : 3 канала
Расположение каналов : Front: L R, LFE
Частота : 48,0 КГц
Битовая глубина : 16 бит
Метод сжатия : С потерями
Размер потока : 132 Мбайт (7%)
Выравнивание : Разделение по промежуткам
Продолжительность промежутка : 40 мс. (1,00 видеокадр)
Время предзагрузки промежутка : 500 ms




реклама партнёра


Вернуться к началу
 Профиль Отправить личное сообщение  
 
   Похожие торренты   Автор   Торрент   Размер 
В этой теме нет новых непрочитанных сообщений. Гриффины (14 сезон: 1-20 серии из 20) / Family Guy [2015, Мультсериал, Комедия, Пародия, WEB-DLRip, Профессиональный (многоголосый, закадровый) - Jaskier]

marya111

54 | 44

5.72 ГБ

В этой теме нет новых непрочитанных сообщений. Шлюхи Монстры #26 / Monster Curves #26 (Студия: Reality Kings) [2014 г., Big Butt, BJ, Gonzo, Hardcore, All Sex, DVDRip, Оригинал]

max77777

1 | 4

3.05 ГБ

В этой теме нет новых непрочитанных сообщений. Шлюхи Монстры #27 / Monster Curves #27 (Студия: Reality Kings) [2015 г., Anal, Big Butt, BJ, Gonzo, Hardcore, All Sex, DVDRip, Оригинал]

max77777

1 | 11

2.07 ГБ

В этой теме нет новых непрочитанных сообщений. Член её мечты 6 / Cock On My Mind 6 (Студия: Diabolic Video) [2015 г., All Sex, Blondes, WEB-DLRip, Оригинал]

max77777

1 | 6

1.18 ГБ

В этой теме нет новых непрочитанных сообщений. Битва Гигантских Членов / The Battle The Monster Cocks (Студия: Vivid) [2015 г., All Sex, Amateur, Big Cocks, WEB-DLRip, Оригинал]

max77777

1 | 3

863.66 МБ

В этой теме нет новых непрочитанных сообщений. Кончи на мои сиськи / Cum On My Tits (Студия: Mile High Media) [2015 г., Big Tits, Blonde, Blowjob, Brunette, Cunilingus, Fingering, Handjob, Hardcore, Mature & Milf, WEB-DLRip, Оригинал]

max77777

4 | 2

809.05 МБ

В этой теме нет новых непрочитанных сообщений. Области Тьмы / Limitless [01х01-07 из 22] (Нил Бёргер, Марк Уэбб) [2015, фантастика, триллер, драма, WEB-DL 720p | Jetvis Studio]

Nickolas3435

12 | 49

6.1 ГБ


Начать новую тему Ответить на тему  [ 1 сообщение ] 




Для Мосгорсуда, Роскомнадзора и рекламодателей:: mosgorsud-torrent[собачка]yandex.ru