Торрент файл
скачать торрент магнет ссылка Добавлен: 18 июл 2012, 15:47
Размер: 4.18 ГБ
Сидеров: 10
Личеров: 4
Автор

СообщениеДобавлено: 18 июл 2012, 15:47 

Не в сети
Релизёр
Аватара пользователя
Дата регистрации:
02 апр 2011, 13:05
Возраст: 34
Спасибо: 55 / 32
Сообщения: 168
Откуда: Калининград

Информация о фильме
Название: Земля мертвых
Оригинальное название: Land of the Dead
Слоган: «The Legendary Filmmaker Brings You His Ultimate Zombie Masterpiece»
Год выпуска: 2005
Жанр: ужасы, боевик, триллер
Режиссер: Джордж А. Ромеро / George A. Romero
В ролях: Саймон Бейкер (Riley Denbo), Джон Легуизамо (Cholo DeMora), Деннис Хоппер (Kaufman), Азия Ардженто (Slack), Роберт Джой (Charlie), Юджин Кларк (Big Daddy), Джоэнн Боланд (Pretty Boy), Тони Наппо (Foxy), Дженнифер Бэкстер (Number 9), Бойд Бэнкс (Butcher), Ясмин Гельо (Tambourine Man), Максвелл МакКейб-Локос (Mouse)

О фильме:
Ожившие мертвецы - зомби заполонили весь мир, и последние люди пытаются спастись, будучи заложниками ситуации в городе, окружённом неприступной стеной. Однако скоро и они окажутся под угрозой со стороны новых, более совершенных и более опасных существ...

MPAA: - Лицам до 17 лет обязательно присутствие взрослого

Выпущено: США, Канада, Франция
Продолжительность: 01:36:52
Перевод: Оригинальный, Профессиональный (многоголосый, закадровый), Профессиональный (полное дублирование) (со вставками многоголосового, закадравого)



Релиз:

Файл
Формат: Matroska
Качество: BDRip
Видео: AVC; 1920x816 (2.35:1); 4708 Kbps; 23,976 fps; 0,125 bit/pixel
Аудио №1: Russian; AC3; 448 Kbps; CBR; 6 ch
Аудио №2: Russian; AC3; 448 Kbps; CBR; 6 ch
Аудио №3: English; AC3; 448 Kbps; CBR; 2 ch
Субтитры: Russian, English

Джордж А. Ромеро был настолько впечатлен прошлогодним британским фильмом-пародией «Зомби по имени Шон», что пригласил двух актеров Саймона Пегга и Эдгара Райта принять участие в его четвертой по счету картине, посвященной тематике живых мертвецов.
«Dead Reckoning» (Рассчет мертвецов) — самое громкое рабочее название картины. Именно так Джордж Ромеро и хотел ее назвать, однако побоялся путаницы с одноименным фильмом Хемпфри Богарта 1947 года. Кроме данного названия у картины было еще два рабочих: «Dead City» (Город мертвых), «Night of the Living Dead: Dead Reckoning» (Ночь живых мертвецов 2).
В первоначальном сценарии присутствовала сцена с канализационными крысами, превратившимися в зомби.
Сюзэен Вложина, корреспондент издания USA Today, приняла участие в картине, сыграв одного из мертвецов. В одной-единственной сцене она брала интервью у своих коллег-зомби. Сюэзэн провела около 100 минут в гримерном кресле, прежде чем смогла выйти на съемочную площадку.
Азия Ардженто, сыгравшую в фильме одну из главных ролей, приходится дочерью знаменитому итальянскому мастеру ужасов — Дарио Ардженто. Дарио был одним из сопродюсеров к картине Ромеро «Рассвет мертвецов» (1978).
Джордж Ромеро хотел отдать дань своему родному городу Питтсбургу и провести весь съемочный процесс в пределах города. Однако продюсеры настояли на том, чтобы съемки состоялись в Торонто. Как известно, в Канаде съемки проводить гораздо выгоднее ввиду более низких налогов.
Фактически картина стала четвертым фильмом в серии Джорджа Ромеро, посвященной борьбе кучки выживших людей с полчищами кровожадных зомби («Ночь живых мертвецов» — 1968, «Рассвет мертвецов» — 1978, «День мертвецов» — 1985). Таким образом, перерыв между последними работами составил ровно 20 лет.
«Land Of The Dead» стала первой картиной из ромеровской зомби-серии, в которой применялись компьютерные спецэффекты.
В фильме засветилась дочь Джорджа Ромеро Тина (она стреляет в зомби, «застрявшего» в электрическом заборе).
Фильм частично основан на оригинальном сценарии к «Дню живых мертвецов» (Day Of The Dead,1985).
[*]Режиссёрский вариант фильма имеет хронометраж 97 минут.
Полное имя: D:VideoLand.of.the.Dead.BDRip.1080.RG.KinoIRK.mkv
Формат: Matroska
Версия формата: Version 2
Размер файла: 4,18 Гбайт
Продолжительность: 1 ч. 36 м.
Общий поток: 6176 Кбит/сек
Библиотека кодирования: libmkv 0.6.5

Видео
Идентификатор: 1
Формат: AVC
Формат/Информация: Advanced Video Codec
Профиль формата: Main@L4.0
Параметр CABAC формата: Да
Параметр ReFrames формата: 4 кадра
Идентификатор кодека: V_MPEG4/ISO/AVC
Продолжительность: 1 ч. 36 м.
Битрейт: 4709 Кбит/сек
Ширина: 1920 пикселей
Высота: 816 пикселей
Соотношение сторон: 2,35:1
Режим частоты кадров: Переменный
Частота кадров: 23,976 кадра/сек
Цветовое пространство: YUV
Субдискретизация насыщенности: 4:2:0
Битовая глубина: 8 бит
Тип развёртки: Прогрессивная
Бит/(Пиксели*Кадры): 0.125
Размер потока: 3,19 Гбайт (76%)
Библиотека кодирования: x264 core 120
Язык: English
Default: Да
Forced: Нет
Основные цвета: BT.709-5, BT.1361, IEC 61966-2-4, SMPTE RP177
Характеристики трансфера: BT.709-5, BT.1361
Коэффициенты матрицы: BT.709-5, BT.1361, IEC 61966-2-4 709, SMPTE RP177

Аудио #1
Идентификатор: 2
Формат: AC-3
Формат/Информация: Audio Coding 3
Расширение режима: CM (complete main)
Параметр Endianness формата: Big
Идентификатор кодека: A_AC3
Продолжительность: 1 ч. 36 м.
Вид битрейта: Постоянный
Битрейт: 448 Кбит/сек
Каналы: 6 каналов
Расположение каналов: Front: L C R, Side: L R, LFE
Частота: 48,0 КГц
Битовая глубина: 16 бит
Метод сжатия: С потерями
Размер потока: 310 Мбайт (7%)
Язык: Russian
Default: Да
Forced: Нет

Аудио #2
Идентификатор: 3
Формат: AC-3
Формат/Информация: Audio Coding 3
Расширение режима: CM (complete main)
Параметр Endianness формата: Big
Идентификатор кодека: A_AC3
Продолжительность: 1 ч. 36 м.
Вид битрейта: Постоянный
Битрейт: 448 Кбит/сек
Каналы: 6 каналов
Расположение каналов: Front: L C R, Side: L R, LFE
Частота: 48,0 КГц
Битовая глубина: 16 бит
Метод сжатия: С потерями
Размер потока: 310 Мбайт (7%)
Язык: Russian
Default: Нет
Forced: Нет

Аудио #3
Идентификатор: 4
Формат: AC-3
Формат/Информация: Audio Coding 3
Профиль формата: Dolby Digital
Расширение режима: CM (complete main)
Параметр Endianness формата: Big
Идентификатор кодека: A_AC3
Продолжительность: 1 ч. 36 м.
Вид битрейта: Постоянный
Битрейт: 448 Кбит/сек
Каналы: 2 канала
Расположение каналов: Front: L R
Частота: 48,0 КГц
Битовая глубина: 16 бит
Метод сжатия: С потерями
Размер потока: 310 Мбайт (7%)
Язык: English
Default: Нет
Forced: Нет

Текст #1
Идентификатор: 5
Формат: UTF-8
Идентификатор кодека: S_TEXT/UTF8
Идентификатор кодека/Информация: UTF-8 Plain Text
Язык: Russian
Default: Нет
Forced: Нет

Текст #2
Идентификатор: 6
Формат: UTF-8
Идентификатор кодека: S_TEXT/UTF8
Идентификатор кодека/Информация: UTF-8 Plain Text
Язык: English
Default: Нет
Forced: Нет





реклама партнёра


Вернуться к началу
 Профиль Отправить личное сообщение  
 
   Похожие торренты   Автор   Торрент   Размер 
В этой теме нет новых непрочитанных сообщений. Подземелье мертвых / Мертвая шахта / Dead Mine [Ужасы, боевик, 2012] BDRip 1080p, Mvo+Sub

salma3

40 | 6

8.2 ГБ

В этой теме нет новых непрочитанных сообщений. Подземелье мертвых / Мертвая шахта / Dead Mine [Ужасы, боевик, 2012] Blu-Ray Remux 1080p, Mvo+Sub

salma3

25 | 5

19.68 ГБ

В этой теме нет новых непрочитанных сообщений. Подземелье мертвых / Мертвая шахта / Dead Mine [Ужасы, боевик, 2012] BDRip 720p, Mvo+Sub

salma3

60 | 10

4.63 ГБ

В этой теме нет новых непрочитанных сообщений. Клуб мертвых / Club Dead [ужасы, 2015] WEB-DL 1080p, Dvo

salma3

115 | 8

2.87 ГБ

В этой теме нет новых непрочитанных сообщений. Дохлая рыба / Dead Fish [Боевик, триллер, драма, комедия, 2005] BDRip 1080p, Dvo+2Avo+Sub

salma3

19 | 4

7.2 ГБ

В этой теме нет новых непрочитанных сообщений. Париж: Город мёртвых / As Above, So Below [ужасы, триллер, 2014] BDRip 1080p, Dub+Sub [Лицензия]

Dracon

49 | 10

11.33 ГБ

В этой теме нет новых непрочитанных сообщений. Париж: Город мёртвых / As Above, So Below [ужасы, триллер, 2014] BDRip 1080p, dub [iTunes Russia]

Dracon

0 | 2

8.17 ГБ


Начать новую тему Ответить на тему  [ 1 сообщение ] 




Для Мосгорсуда, Роскомнадзора и рекламодателей:: mosgorsud-torrent[собачка]yandex.ru