Торрент файл
скачать торрент магнет ссылка Добавлен: 15 июл 2012, 09:24
Размер: 2.05 ГБ
Сидеров: 0
Личеров: 2
Статус: (Dracon)
Автор

СообщениеДобавлено: 15 июл 2012, 09:24 

Не в сети
Зам. Админа
Аватара пользователя
Дата регистрации:
02 дек 2010, 12:39
Спасибо: 12539 / 214
Сообщения: 28076

Год выхода: 2012
Жанр: Мелодрама, романтика, комедия
Режиссер: Чжон Ке Су / Jeon Gye Soo
В ролях:
Чжон У в роли Ку Чжу Воля / Детектива Ма
Кон Хё Чжин в роли Хи Чжин / Хе Ён
Чжо Хи Бон в роли Детектива Гвака
Ю Ин На в роли Су Чжон / Кён Сук
Ким Сон Ги в роли Доктора Пака
Гвак Пён Гю в роли Режиссера Хвана
Чой Ту Ри в роли Кён Чжа
Чой Ю Хва в роли Мин Чжи / Вероники
Пак Ён Су в роли Ён Щика / Директора Чжо
Ким Хе Хва в роли Ма И
Ким Чже Хва в роли Чжу Хи
Ли Ын Че в роли Пэк Сон Хи
Чжан Дон Чан в роли отца Хи Чжин

О фильме:
В период очередного кризиса, писатель Ку Чжу Воль едет поработать в Берлин. Там он чисто случайно знакомится с очаровательной Хи Чжин. Она понравилась ему до такой степени, что вернувшись в Корею, Чжу Воль отправляет ей трогательное любовное письмо. Тут-то и завязываются их отношения. Но Чжу Воль настолько отчаялся реализоваться, как писатель, что Хи Чжин становится не только его девушкой, но и музой, и героиней его рассказов, которые он
публикует в газете. И никто не знает, что же будет в итоге с такой странной парой.

Острожно, корейский юмор
Страна: Южная Корея
Продолжительность: 02:01:35
Перевод: Субтитры (Русские)

Кодек: XviD
Качество: DVDRip
Видео: XviD MPEG-4, 800x336 (2.38:1), 23.976 fps, 1960 kbps avg
Звук: AC3 Dolby Digital, 48 kHz, 448 kbps, 3/2 (L,C,R,l,r) + LFE ch
Субтитры: Русские softsub (SSA/***)

General
Format : AVI
Format/Info : Audio Video Interleave
Format profile : OpenDML
File size : 2.05 GiB
Duration : 2h 1mn
Overall bit rate : 2 415 Kbps
Writing application : VirtualDubMod 1.5.10.2 (build 2540/release)
Writing library : VirtualDubMod build 2540/release

Video
ID : 0
Format : MPEG-4 Visual
Format profile : Advanced Simple@L5
Format settings, BVOP : Yes
Format settings, QPel : No
Format settings, GMC : No warppoints
Format settings, Matrix : Default (H.263)
Muxing mode : Packed bitstream
Codec ID : XVID
Codec ID/Hint : XviD
Duration : 2h 1mn
Bit rate : 1 955 Kbps
Width : 800 pixels
Height : 336 pixels
Display aspect ratio : 2.35:1
Frame rate : 23.976 fps
Resolution : 8 bits
Colorimetry : 4:2:0
Scan type : Progressive
Bits/(Pixel*Frame) : 0.303
Stream size : 1.66 GiB (81%)
Writing library : XviD 64

Audio
ID : 1
Format : AC-3
Format/Info : Audio Coding 3
Codec ID : 2000
Duration : 2h 1mn
Bit rate mode : Constant
Bit rate : 448 Kbps
Channel(s) : 6 channels
Channel positions : Front: L C R, Surround: L R, LFE
Sampling rate : 48.0 KHz
Stream size : 390 MiB (19%)
Alignment : Split accross interleaves
Interleave, duration : 42 ms (1.00 video frame)
Interleave, preload duration : 500 ms




реклама партнёра


Вернуться к началу
 Профиль  
 
   Похожие торренты   Автор   Торрент   Размер 
В этой теме нет новых непрочитанных сообщений. Люблю себя, или тебя? / Love Myself or You? [s01] (Lin Hong Jie) [2015, Комедия, романтика, дорама, мелодрама, HDTVRip 720p | KrisTee]

Dracon

10 | 4

23.94 ГБ

В этой теме нет новых непрочитанных сообщений. Любовные грезы / Love Dream [триллер, 1988] DVDRip-AVC, Avo

salma3

186 | 46

2.69 ГБ

В этой теме нет новых непрочитанных сообщений. Все в порядке, это любовь / Просто это любовь / Ничего страшного, это любовь / It's Okay It's Love [01-16 из 16](Ким Кю Тхэ)[2014, мелодрама, романтика, комедия, психология, HDTVRip 720р]

Nickolas3435

9 | 5

18.51 ГБ

В этой теме нет новых непрочитанных сообщений. Чистая Любовь / Pure Love (Ли Юн Хи / -:-) [2016 г., Южная Корея, драма, мелодрама, романтика, HDRip] DVO

Alfredovich

14 | 4

1.76 ГБ

В этой теме нет новых непрочитанных сообщений. Персонаж / Stranger Than Fiction [Фэнтези, мелодрама, комедия, 2006] BDRip 1080p, Dub+Dvo

salma3

20 | 2

8.97 ГБ

В этой теме нет новых непрочитанных сообщений. Убойное чтиво / Stranger Than Fiction [триллер, комедия, 2000] DVDRip, Mvo

salma3

7 | 5

1.46 ГБ

В этой теме нет новых непрочитанных сообщений. Любовный прогноз / Сегодняшняя любовь / Love Forecast / Today's Love (Чжин Пё Пак / Jin-pyo Park) [2015г., Южная Корея, комедия, мелодрама, HDRip] mvo

Alfredovich

4 | 3

1.47 ГБ


Начать новую тему Ответить на тему  [ 1 сообщение ] 




Для Мосгорсуда, Роскомнадзора и рекламодателей:: mosgorsud-torrent[собачка]yandex.ru