Торрент файл
скачать торрент магнет ссылка Добавлен: 13 июл 2012, 14:09
Размер: 745.35 МБ
Сидеров: 6
Личеров: 5
Автор

СообщениеДобавлено: 13 июл 2012, 14:09 

Не в сети
Супермодератор
Аватара пользователя
Дата регистрации:
15 фев 2012, 16:44
Возраст: 28
Спасибо: 6563 / 2129
Сообщения: 43556
Бассейн / Swimming Pool

Перевод: Профессиональный (многоголосый, закадровый), cубтитры: отсутствуют
Формат: DVDRip-AVC, MKV, H.264, MP3
Страна: Франция, Великобритания
Режиссер: Франсуа Озон
Жанр: триллер, драма, криминал, детектив
Продолжительность: 01:42:29
Год выпуска: 2003
В ролях: Шарлотта Рэмплинг, Людивин Санье, Чарльз Дэнс, Марк Файоль, Жан-Мари Ламур, Мирей Моссе, Мишель Фо, Жан-Клод Лека
Описание: Популярная британская писательница Сэра Мортон чувствует, что испытывает творческий кризис, устав от бесконечного тиражирования криминальных бестселлеров, поэтому соглашается на предложение своего издателя Джона Бослоуда поехать на отдых в его дом во французской провинции. Там она без особого успеха пробует создать нечто новое, пока на вилле не появляется взбалмошная и чересчур раскованная в поведении молодая девушка Жюли, представившаяся дочерью Бослоуда. Эта сексапильная особа, вообще-то мешая спокойной жизни Сэры, в то же время даёт ей пищу для вдохновения, а также пробуждает в пятидесятилетней женщине желание вновь ощутить себя привлекательной и страстной.

Видео: 720 x 400 (16:9), 23.976 fps, AVC (х264) , ~ 886 Kbps, 0.128 bit/pixel
Аудио: 48 kHz, MPEG Layer 3, 2 ch, ~128.00 kbps avg

Рип: jeenart
Полное имя: F:\Мои релизы\Все релизы 10\bassein_[tfile.ru].mkv
Формат: Matroska
Версия формата: Version 2
Размер файла: 745 Мбайт
Продолжительность: 1 ч. 42 м.
Общий поток: 1016 Кбит/сек
Дата кодирования: UTC 2012-07-12 16:59:52
Программа кодирования: mkvmerge v4.6.0 ('Still Crazy After All These Years') сборка от Apr1 2011 21:01:49
Библиотека кодирования: libebml v1.2.0 + libmatroska v1.1.0
Видео
Идентификатор: 1
Формат: AVC
Формат/Информация: Advanced Video Codec
Профиль формата:
Параметр CABAC формата: Да
Параметр ReFrames формата: 8 кадров
Идентификатор кодека: V_MPEG4/ISO/AVC
Продолжительность: 1 ч. 42 м.
Битрейт: 886 Кбит/сек
Ширина: 720 пикс.
Высота: 400 пикс.
Соотношение сторон: 16:9
Частота кадров: 23,976 кадр/сек
Цветовое пространство: YUV
Подвыборка цветности: 4:2:0
Битовая глубина: 8 бит
Тип развёртки: Прогрессивная
Бит/(Пиксели*Кадры): 0.128
Размер потока: 637 Мбайт (85%)
Библиотека кодирования: x264 core 115 r1937 aa21558
Настройки программы: cabac=1 / ref=8 / deblock=1:-1:-1 / analyse=0x3:0x133 / me=umh / subme=7 / psy=1 / psy_rd=1.00:0.10 / mixed_ref=1 / me_range=16 / chroma_me=1 / trellis=2 / 8x8dct=1 / cqm=0 / deadzone=21,11 / fast_pskip=0 / chroma_qp_offset=-3 / threads=6 / sliced_threads=0 / nr=0 / decimate=1 / interlaced=0 / bluray_compat=0 / constrained_intra=0 / bframes=3 / b_pyramid=2 / b_adapt=2 / b_bias=0 / direct=3 / weightb=1 / open_gop=0 / weightp=2 / keyint=250 / keyint_min=23 / scenecut=40 / intra_refresh=0 / rc_lookahead=50 / rc=2pass / mbtree=1 / bitrate=886 / ratetol=1.0 / qcomp=0.60 / qpmin=0 / qpmax=69 / qpstep=4 / cplxblur=20.0 / qblur=0.5 / ip_ratio=1.40 / aq=1:1.00
Аудио
Идентификатор: 2
Формат: MPEG Audio
Версия формата: Version 1
Профиль формата: Layer 3
Режим: Joint stereo
Расширение режима: MS Stereo
Идентификатор кодека: A_MPEG/L3
Идентификатор кодека/Подсказка: MP3
Продолжительность: 1 ч. 42 м.
Вид битрейта: Постоянный
Битрейт: 128 Кбит/сек
Каналы: 2 канала
Частота: 48,0 КГц
Метод сжатия: С потерями
Размер потока: 93,9 Мбайт (13%)
Библиотека кодирования: LAME3.98r
Настройки программы: -m j -V 4 -q 2 -lowpass 17 -b 128


















реклама партнёра


Вернуться к началу
 Профиль Отправить личное сообщение  
 
   Похожие торренты   Автор   Торрент   Размер 
В этой теме нет новых непрочитанных сообщений. Бассейн / La piscine [драма, мелодрама, криминал, 1969] BDRip 1080p, Dub

salma3

10 | 2

10.53 ГБ

В этой теме нет новых непрочитанных сообщений. Обжора / L'outremangeur [драма, мелодрама, криминал, детектив, 2003] DVDRip, Mvo

salma3

78 | 17

1.45 ГБ

В этой теме нет новых непрочитанных сообщений. Скажи что-нибудь / Kucch To Hai [ужасы, триллер, драма, мелодрама, детектив, 2003] DVDRip, Dvo

salma3

6 | 8

1.47 ГБ

В этой теме нет новых непрочитанных сообщений. Охота на Веронику / Veronica Guerin [триллер, драма, криминал, биография, 2003] DVDRip, Mvo

salma3

117 | 12

1.46 ГБ

В этой теме нет новых непрочитанных сообщений. [TwistysHard.com / Twistys.com] Nia Nacci - Pool Patrol (08.10.2017) [Blowjob, 69, Twistys Hard, Outdoors, Pool, Sex, Wet, Ebony]

salma3

2 | 1

463.86 МБ

В этой теме нет новых непрочитанных сообщений. Наемный убийца / Torpedo [01-02 из 02] [детектив, триллер, криминал, драма, 2007] DVDRip, Avo

salma3

72 | 6

2.92 ГБ

В этой теме нет новых непрочитанных сообщений. Двойная жизнь / Second Skin [триллер, детектив, драма, криминал, 2000] DVDRip-AVC, Mvo+Avo+Sub

salma3

50 | 11

2.17 ГБ


Начать новую тему Ответить на тему  [ 1 сообщение ] 




Для Мосгорсуда, Роскомнадзора и рекламодателей:: mosgorsud-torrent[собачка]yandex.ru