Торрент файл
скачать торрент магнет ссылка Добавлен: 01 июл 2012, 11:23
Размер: 1.46 ГБ
Сидеров: 56
Личеров: 7
Статус: (Dracon)
Автор

СообщениеДобавлено: 01 июл 2012, 11:23 

Не в сети
Зам. Админа
Аватара пользователя
Дата регистрации:
02 дек 2010, 12:39
Спасибо: 12623 / 214
Сообщения: 28012

Страна: Германия, Канада, Польша
Жанр:драма, военный
Год выпуска: 2011
Продолжительность: 02:17:49

Перевод: Одноголосый закадровый - (Kenum)
Cубтитры: нет
Режиссер: Агнешка Холланд / Agnieszka Holland

В ролях: Роберт Венцкевич, Бенно Фюрманн, Агнешка Гроховска, Мария Шрадер, Херберт Науп, Марчин Босак и др.

Описание: Главный герой фильма — Леопольд Соха, рабочий городского коллектора, а по совместительству мелкий вор. Когда фашисты занимают Львов, он случайно сталкивается с группой евреев, пытающихся спастись от отправки в гетто. За денежное вознаграждение он прячет беглецов в лабиринте подземных коммуникаций города. То, что начинается как циничная деловая договоренность, постепенно перерастает в нечто гораздо большее. За это время, когда на протяжении 14 месяцев женщины, мужчины и дети испытывают судьбу, обманывая верную смерть, сердце Леопольда проникается чувством сострадания к этим несчастным людям.
Дополнительная информация: Номинант премии Оскар-2012 в категории "Лучший фильм на иностранном языке".



смотреть СЕМПЛозвучки на youtube
скачать СЕМПЛс multi-up

----------------------------------------------------------------------------------
Над релизом трудились:

Озвучка: Kenum (Владислав Данилов)

Работа со звуком: viruse (Виталий Емельянов)

Перевод: Dr. pro
----------------------------------------------------------------------------------

Качество видео: HDRip
Формат видео: AVI

Видео: 720x400 (1.80:1), 25 fps, DivX Codec 5.x or 6.x ~1055 kbps avg, 0.15 bit/pixel
Аудио: 48 kHz, AC3 Dolby Digital, 3/2 (L,C,R,l,r) + LFE ch, ~448.00 kbps avg

D:ОЗВУЧКАГОТОВОЕВЛАДВ ТЕМНОТЕIn.Darkness.(2011).HDRip.Kenum.avi
General
Complete name : D:ОЗВУЧКАГОТОВОЕВЛАДВ ТЕМНОТЕIn.Darkness.(2011).HDRip.Kenum.avi
Format : AVI
Format/Info : Audio Video Interleave
File size : 1.46 GiB
Duration : 2h 17mn
Overall bit rate : 1 514 Kbps
Writing application : VirtualDubMod 1.5.10.2 (build 2540/release)
Writing library : VirtualDubMod build 2540/release
Video #0
ID : 0
Format : MPEG-4 Visual
Format profile : Advanced Simple@L5
Format settings, BVOP : 1
Format settings, QPel : No
Format settings, GMC : No warppoints
Format settings, Matrix : Default (H.263)
Muxing mode : Packed bitstream
Codec ID : DX50
Codec ID/Hint : DivX 5
Duration : 2h 17mn
Bit rate : 1 056 Kbps
Width : 720 pixels
Height : 400 pixels
Display aspect ratio : 16:9
Frame rate : 25.000 fps
Color space : YUV
Chroma subsampling : 4:2:0
Bit depth : 8 bits
Scan type : Progressive
Compression mode : Lossy
Bits/(Pixel*Frame) : 0.147
Stream size : 1.02 GiB (70%)
Writing library : XviD 1.2.1 (UTC 2008-12-04)
Audio #1
ID : 1
Format : AC-3
Format/Info : Audio Coding 3
Mode extension : CM (complete main)
Codec ID : 2000
Duration : 2h 17mn
Bit rate mode : Constant
Bit rate : 448 Kbps
Channel(s) : 6 channels
Channel positions : Front: L C R, Side: L R, LFE
Sampling rate : 48.0 KHz
Bit depth : 16 bits
Compression mode : Lossy
Stream size : 442 MiB (30%)
Alignment : Split accross interleaves
Interleave, duration : 40 ms (1.00 video frame)
Interleave, preload duration : 500 ms











реклама партнёра


Вернуться к началу
 Профиль  
 
   Похожие торренты   Автор   Торрент   Размер 
В этой теме нет новых непрочитанных сообщений. Темнота / The Darkness [ужасы, триллер, 2016] HDRip, Dub [iTunes]

salma3

76 | 24

1.42 ГБ

В этой теме нет новых непрочитанных сообщений. Хранитель тьмы / Keeper of Darkness [ужасы, триллер, 2015] HDRip-AVC, Avo

salma3

186 | 6

828.55 МБ

В этой теме нет новых непрочитанных сообщений. Страх темноты / The Fear of Darkness [ужасы, триллер, 2015] HDRip, Dub [iTunes]

salma3

4244 | 669

1.45 ГБ

В этой теме нет новых непрочитанных сообщений. Глубоко во тьме / Deep in the Darkness (Колин Тейс) [Ужасы,Триллер, 2014] HDRip, dvo

Dracon

6 | 0

1.41 ГБ

В этой теме нет новых непрочитанных сообщений. В темноте [2014 г., Amateur, CamRip 576p]

friizze

8 | 2

670.34 МБ

В этой теме нет новых непрочитанных сообщений. Стартрек: Возмездие / Star Trek Into Darkness [фантастика, боевик, приключения, 2013] HDRip, Dub [iPad]

salma3

376 | 14

1.77 ГБ

В этой теме нет новых непрочитанных сообщений. Что Мы Делаем В Темноте / What We Do In The Shadows [Комедия, 2014] DVDRip, Dvo

Dracon

16 | 2

1.51 ГБ


Начать новую тему Ответить на тему  [ 1 сообщение ] 




Для Мосгорсуда, Роскомнадзора и рекламодателей:: mosgorsud-torrent[собачка]yandex.ru