Торрент файл
скачать торрент магнет ссылка Добавлен: 29 июн 2012, 22:24
Размер: 1.35 ГБ
Сидеров: 9
Личеров: 7
Автор

СообщениеДобавлено: 29 июн 2012, 22:24 

Не в сети
Супермодератор
Аватара пользователя
Дата регистрации:
15 фев 2012, 16:44
Возраст: 27
Спасибо: 5143 / 2090
Сообщения: 17478
В сетях паутины / Center of the Web
Перевод:Любительский (одноголосый)
Субтитры:Отсутствуют
Формат:DVDRip, AVI, DivX, MP3
Страна:США
Режиссер:Дэвид А. Прайор
Жанр:Боевик, триллер, драма, криминал
Продолжительность: 01:32:28
Год выпуска:1992
В ролях: Роберт Дави, Шарлин Тилтон, Тед Прайор, Бо Хопкинс, Чарльз Нэпьер, Тони Кертис, Грэхэм Таймбс, Дженнифер Мэсси, Чарльз Стедман
Описание: Театрального учителя Джона Филипса гангстеры принимают за наемного убийцу Логана, который должен убить губернатора.
Агент ФБР Морган предлагает ему внедриться в самое сердце мафии, крестным отцом которой является Стивен Мур. Так начинается новая жизнь Джона, полная погонь, убийств и опасностей.


Видео:656x496 (4:3), 29,970fps, DivX ~1965 Kbps avg, 0.20 bit/pixel
Аудио:44.1 KHz, MP3, 2 ch, ~112Kbps avg
Общее
Полное имя: D:\Center Of The Web (1992).avi
Формат: AVI
Формат/Информация: Audio Video Interleave
Размер файла: 1,35 Гбайт
Продолжительность: 1 ч. 32 м.
Общий поток: 2089 Кбит/сек
Библиотека кодирования: VirtualDub-MPEG2 build 24600/release
Видео
Идентификатор: 0
Формат: MPEG-4 Visual
Профиль формата: Simple@L3
Параметр BVOP формата: Нет
Параметр QPel формата: Нет
Параметр GMC формата: Без точки перехода
Параметр матрицы формата: Default (H.263)
Идентификатор кодека: DIVX
Идентификатор кодека/Информация: Project Mayo
Идентификатор кодека/Подсказка: DivX 4
Продолжительность: 1 ч. 32 м.
Битрейт: 1965 Кбит/сек
Ширина: 656 пикселей
Высота: 496 пикселей
Соотношение сторон: 4:3
Частота кадров: 29,970 кадров/сек
Цветовое пространство: YUV
Субдискретизация насыщенности: 4:2:0
Битовая глубина: 8 бит
Тип развёртки: Прогрессивная
Метод сжатия: С потерями
Бит/(Пиксели*Кадры): 0.202
Размер потока: 1,27 Гбайт (94%)
Библиотека кодирования: XviD 1.2.1 (UTC 2008-12-04)
Аудио
Идентификатор: 1
Формат: MPEG Audio
Версия формата: Version 1
Профиль формата: Layer 3
Режим: Joint stereo
Расширение режима: MS Stereo
Идентификатор кодека: 55
Идентификатор кодека/Подсказка: MP3
Продолжительность: 1 ч. 32 м.
Вид битрейта: Постоянный
Битрейт: 112 Кбит/сек
Каналы: 2 канала
Частота: 44,1 КГц
Метод сжатия: С потерями
Размер потока: 73,9 Мбайт (5%)
Выравнивание: Разделение по промежуткам
Продолжительность промежутка: 33мс. (1,00 видеокадр)
Время предзагрузки промежутка: 500мс.










реклама партнёра


Вернуться к началу
 Профиль Отправить личное сообщение  
 
   Похожие торренты   Автор   Торрент   Размер 
В этой теме нет новых непрочитанных сообщений. Музыкант / El mariachi [боевик, триллер, драма, криминал, 1992] HDRip, Avo

salma3

12 | 4

1.45 ГБ

В этой теме нет новых непрочитанных сообщений. Игры патриотов / Patriot Games [боевик, триллер, драма, криминал, 1992] BDRip 720p, 2Mvo+Avo+Dvo

salma3

23 | 6

11.71 ГБ

В этой теме нет новых непрочитанных сообщений. Макс и Иеремия / Max & Jeremie [триллер, драма, криминал, 1992] DVDRip, Mvo

salma3

47 | 4

1.35 ГБ

В этой теме нет новых непрочитанных сообщений. Бешеный Джо / Безумный Джо / Dead Center / Crazy Joe [боевик, криминал, 1993] HDTVRip, Dvo [НТВ+]

salma3

1 | 0

1.36 ГБ

В этой теме нет новых непрочитанных сообщений. Поймать убийцу / To Catch a Killer [триллер, драма, криминал, биография, 1992] DVDRip, Avo

salma3

156 | 12

1.74 ГБ

В этой теме нет новых непрочитанных сообщений. Двойные неприятности / Double Trouble [боевик, триллер, комедия, криминал, 1992] HDTVRip, Dvo [НТВ+]

salma3

36 | 6

1.37 ГБ

В этой теме нет новых непрочитанных сообщений. Нацисты в центре Земли / Nazis at the Center of the Earth [фантастика, боевик, триллер, приключения, 2012] BDRip-AVC, Mvo

salma3

106 | 13

1.45 ГБ


Начать новую тему Ответить на тему  [ 1 сообщение ] 




Для Мосгорсуда, Роскомнадзора и рекламодателей:: mosgorsud-torrent[собачка]yandex.ru