Торрент файл
скачать торрент магнет ссылка Добавлен: 19 июн 2012, 11:07
Размер: 1.45 ГБ
Сидеров: 4
Личеров: 7
Статус: (drink)
Автор

СообщениеДобавлено: 19 июн 2012, 11:07 

В сети
Супермодератор
Аватара пользователя
Дата регистрации:
15 фев 2012, 16:44
Возраст: 27
Спасибо: 5148 / 2090
Сообщения: 17558

День мертвецов 2: Эпидемия
Day of the Dead 2: Contagium

«Every day has a beginning»

Страна: США
Жанр:Ужасы, фантастика
Год выпуска: 2005
Продолжительность: 01:43:26
Перевод: Профессиональный (многоголосый, закадровый) + английская дорожка
Субтитры русские: есть (idx + sub) отдельно

Режиссёр: Ана Клевел /Ana Clavell, Джеймс Гленн Дьюделсон / James Glenn Dudelson
В ролях: Лори Баранайя, Стэн Климеско, Джон Фридом Генри, Джастин Ипок, Джулиан Томас, Стефан Волферт, Саманта Кларк, Джо С. Марино, Жаклин Оливье, Андреас Ван Рэй

Описание фильма: Действие начинается в 1968-м. В военном госпитале в Пенсильвании армейские ученые доэкспериментировались с бактериологическим оружием до того, что потеряли над ним контроль. И, как следствие, и пациенты, и медперсонал начали умирать и превращаться в зомби.



Качество: DVDRip
Формат: AVI
Видео: XviD; 704x384 (16:9); 1487 Kbps; 23,976 fps; 0,230 bpp
Аудио 1: AC3; 384 Kbps; CBR; 6 ch [Русский]
Аудио 2: MP3; 128 Kbps; CBR; 2 ch [English]







Формат: AVI
Формат/Информация: Audio Video Interleave
Размер файла: 1,45 Гбайт
Продолжительность: 1 ч. 43 м.
Общий поток: 2008 Кбит/сек
Название фильма:Day of the Dead 2: Contagium
Режиссёр: Ana Clavell
Жанр: Horror
Программа кодирования: VirtualDubMod 1.5.10.2 (build 2540/release)
Библиотека кодирования: VirtualDubMod build 2540/release
Формат оригинала/Имя: Movie
Правообладатель: 01:43:26.414 (148805 frames)
Примечание: DVDRip by gera

Видео
Идентификатор: 0
Формат: MPEG-4 Visual
Профиль формата: Advanced Simple@L5
Параметр BVOP формата: 4
Параметр QPel формата: Нет
Параметр GMC формата: Без точки перехода
Параметр матрицы формата: Default (MPEG)
Идентификатор кодека: XVID
Идентификатор кодека/Подсказка: XviD
Продолжительность: 1 ч. 43 м.
Битрейт: 1488 Кбит/сек
Ширина: 704 пикселя
Высота: 384 пикселя
Соотношение сторон: 16:9
Частота кадров: 23,976 кадра/сек
Цветовое пространство: YUV
Субдискретизация насыщенности: 4:2:0
Битовая глубина: 8 бит
Тип развёртки: Прогрессивная
Метод сжатия: С потерями
Бит/(Пиксели*Кадры): 0.230
Размер потока: 1,08 Гбайт (74%)
Библиотека кодирования: XviD 1.2.1 (UTC 2008-12-04)

Аудио #1
Идентификатор: 1
Формат: AC-3
Формат/Информация: Audio Coding 3
Расширение режима: CM (complete main)
Идентификатор кодека: 2000
Продолжительность: 1 ч. 43 м.
Вид битрейта: Постоянный
Битрейт: 384 Кбит/сек
Каналы: 6 каналов
Расположение каналов: Front: L C R, Side: L R, LFE
Частота: 48,0 КГц
Битовая глубина: 16 бит
Метод сжатия: С потерями
Размер потока: 284 Мбайт (19%)
Выравнивание: Разделение по промежуткам
Продолжительность промежутка: 64мс. (1,53 видеокадра)
Время предзагрузки промежутка: 64мс.

Аудио #2
Идентификатор: 2
Формат: MPEG Audio
Версия формата: Version 1
Профиль формата: Layer 3
Режим: Joint stereo
Расширение режима: MS Stereo
Идентификатор кодека: 55
Идентификатор кодека/Подсказка: MP3
Продолжительность: 1 ч. 43 м.
Вид битрейта: Постоянный
Битрейт: 128 Кбит/сек
Каналы: 2 канала
Частота: 48,0 КГц
Метод сжатия: С потерями
Размер потока: 94,7 Мбайт (6%)
Выравнивание: Соединение по промежуткам
Продолжительность промежутка: 1043мс. (25,00 видеокадров)
Время предзагрузки промежутка: 1008мс.





реклама партнёра


Вернуться к началу
 Профиль Отправить личное сообщение  
 
   Похожие торренты   Автор   Торрент   Размер 
В этой теме нет новых непрочитанных сообщений. Возвращение живых мертвецов 3 / Return of the Living Dead 3 [ужасы, фантастика, мелодрама, 1993] DVDRip, Mvo

salma3

6 | 6

1.37 ГБ

В этой теме нет новых непрочитанных сообщений. Слепые мертвецы 2: Возвращение слепых мертвецов / Blind Dead 2: Return of the Evil Dead [Ужасы, 1973] DVDRip, Avo

salma3

0 | 2

1.46 ГБ

В этой теме нет новых непрочитанных сообщений. Возвращение живых мертвецов / The Return of the Living Dead [ужасы, фантастика, комедия, 1985] HDRip, Dvo [НТВ+]

salma3

24 | 4

1.45 ГБ

В этой теме нет новых непрочитанных сообщений. Возвращение живых мертвецов 2 / Return of the Living Dead Part II [ужасы, фантастика, комедия, 1988] WEB-DLRip, Mvo [Премьер Видео Фильм]

salma3

3 | 4

1.46 ГБ

В этой теме нет новых непрочитанных сообщений. Оргия мертвецов / Orgy of the Dead [ужасы, фэнтези, эротика, 1965] DVDRip, Avo

salma3

14 | 11

1.44 ГБ

В этой теме нет новых непрочитанных сообщений. Слепые мертвецы 3: Корабль слепых мертвецов / Blind Dead 3: The Ghost Galleon [Ужасы, 1974] DVDRip, Avo

salma3

0 | 3

1.46 ГБ

В этой теме нет новых непрочитанных сообщений. Слепые мертвецы 1: Могилы слепых мертвецов / Tombs of the blind dead / La Noche del terror ciego [Ужасы, 1972] DVDRip, Avo

salma3

0 | 2

1.46 ГБ


Начать новую тему Ответить на тему  [ 1 сообщение ] 




Для Мосгорсуда, Роскомнадзора и рекламодателей:: mosgorsud-torrent[собачка]yandex.ru