Торрент файл
скачать торрент магнет ссылка Добавлен: 16 июн 2012, 22:39
Размер: 708.94 МБ
Сидеров: 1
Личеров: 2
Статус: (drink)
Автор

СообщениеДобавлено: 16 июн 2012, 22:39 

Не в сети
Супермодератор
Аватара пользователя
Дата регистрации:
15 фев 2012, 16:44
Возраст: 27
Спасибо: 5139 / 2089
Сообщения: 17429

/ Ночь зомби / Zombie Night

Страна: Канада, США
Жанр:Ужасы, комедия
Год выпуска: 2003
Продолжительность: 01:31:12
Перевод: Профессиональный (многоголосый закадровый)
Субтитры: нет

Режиссёр: Дэвид Дж. Фрэнсис / David J. Francis
В ролях: Дэнни Тикнович, Сандра Сеговиц, Дуэйн Мониз, Стив Кертис, Андреа Рамоло, Дианна Уэльс, Джонни Коул, Дэвид Франклин-Ратчфорд, Эмбер Линн Френсис, Лиза Фрэнкс

Описание фильма: Серия атомных взрывов случившаяся по вине двух крупных мировых держав, потрясла планету. Распространившаяся с невероятной скоростью радиация, явилась причиной массового отравления людей. Ни одной стране мира не удалось избежать страшных последствий ядерной катастрофы…




Качество: DVDRip
Формат: AVI
Видео: XviD; 640x360 (16:9); 949 Kbps; 25 fps; 0,165 bpp
Аудио: MPEG-1 Audio layer 3 (MP3); 128 Kbps; CBR; 2 ch [Russian]











Формат: AVI
Формат/Информация: Audio Video Interleave
Размер файла: 709 Мбайт
Продолжительность: 1 ч. 31 м.
Общий поток: 1087 Кбит/сек
Программа кодирования: VirtualDubMod 1.5.10.2 (build 2540/release)
Библиотека кодирования: VirtualDubMod build 2540/release

Видео
Идентификатор: 0
Формат: MPEG-4 Visual
Профиль формата: Advanced Simple@L5
Параметр BVOP формата: 1
Параметр QPel формата: Нет
Параметр GMC формата: Без точки перехода
Параметр матрицы формата: Default (H.263)
Идентификатор кодека: XVID
Идентификатор кодека/Подсказка: XviD
Продолжительность: 1 ч. 31 м.
Битрейт: 949 Кбит/сек
Ширина: 640 пикс.
Высота: 360 пикс.
Соотношение сторон: 16:9
Частота кадров: 25,000 кадр/сек
Цветовое пространство: YUV
Подвыборка цветности: 4:2:0
Битовая глубина: 8 бит
Тип развёртки: Прогрессивная
Метод сжатия: С потерями
Бит/(Пиксели*Кадры): 0.165
Размер потока: 619 Мбайт (87%)
Библиотека кодирования: XviD 1.2.0.dev47 (UTC 2006-11-01)

Аудио
Идентификатор: 1
Формат: MPEG Audio
Версия формата: Version 1
Профиль формата: Layer 3
Идентификатор кодека: 55
Идентификатор кодека/Подсказка: MP3
Продолжительность: 1 ч. 31 м.
Вид битрейта: Постоянный
Битрейт: 128 Кбит/сек
Каналы: 2 канала
Частота: 48,0 КГц
Метод сжатия: С потерями
Размер потока: 83,5 Мбайт (12%)
Выравнивание: Соединение по промежуткам
Продолжительность промежутка: 40мс. (1,00 видеокадр)
Время предзагрузки промежутка: 504 ms
Библиотека кодирования: LAME3.97
Настройки программы: -m s -V 4 -q 2 -lowpass 17 -b 128





реклама партнёра


Вернуться к началу
 Профиль Отправить личное сообщение  
 
   Похожие торренты   Автор   Торрент   Размер 
В этой теме нет новых непрочитанных сообщений. Ночь зомби / Zombie Night [ужасы, 2013] HDRip, avo

Dracon

12 | 2

1.37 ГБ

В этой теме нет новых непрочитанных сообщений. Ночь зомби / Zombie Night [ужасы, 2013] BDRip 1080p, Avo

salma3

10 | 5

10.31 ГБ

В этой теме нет новых непрочитанных сообщений. Ночь Живой Дэб / Night of the Living Deb (Кайл Ранкин) [Ужасы, мелодрама, комедия, зомби, 2015] HDRip Dvo

yurban

1805 | 79

733.36 МБ

В этой теме нет новых непрочитанных сообщений. Стриптиз от зомби / Зомби-стриптизерши / Zombie Strippers! [ужасы, комедия, 2008] BDRemux, Mvo

salma3

14 | 6

21.68 ГБ

В этой теме нет новых непрочитанных сообщений. Пожирая живых / Zombie Night [Ужасы, 2003] DVDRip, Mvo

salma3

0 | 2

1.46 ГБ

В этой теме нет новых непрочитанных сообщений. Инициация: Тихая ночь, смертельная ночь 4 / Initiation: Silent Night, Deadly Night 4 [ужасы, триллер, 1990] DVDRip, Avo

salma3

127 | 304

1.37 ГБ

В этой теме нет новых непрочитанных сообщений. Мы с братками против зомби апокалипсиса / Me And My Mates vs The Zombie Apocalypse [ужасы, комедия, 2015] DVDRip, Avo

salma3

266 | 18

1.37 ГБ


Начать новую тему Ответить на тему  [ 1 сообщение ] 




Для Мосгорсуда, Роскомнадзора и рекламодателей:: mosgorsud-torrent[собачка]yandex.ru