Торрент файл
скачать торрент магнет ссылка Добавлен: 16 июн 2012, 22:22
Размер: 1.46 ГБ
Сидеров: 2
Личеров: 6
Статус: (drink)
Автор

СообщениеДобавлено: 16 июн 2012, 22:22 

Не в сети
Супермодератор
Аватара пользователя
Дата регистрации:
15 фев 2012, 16:44
Возраст: 27
Спасибо: 5135 / 2089
Сообщения: 17406

Ходячие трупы / Dead Above Ground

«Он 'вернулся из могилы', чтобы отомстить.»

Страна: США
Жанр:Ужасы, криминал
Год выпуска: 2002
Продолжительность: 01:30:05
Перевод: Профессиональный (двухголосый закадровый) [Лицензия] "Екатеринбург Арт"
Субтитры: нет

Режиссёр: Чак Боуман / Chuck Bowman

В ролях: Корбин Бернсен, Стефен Дж. Кэннел, Роберт Конрад, Адриа Доун, Тони Денман, Адам Фрост, Лиза Энн Хэдли, Джош Хэммонд

Описание фильма: Проблемный ученик частной школы Бэй-Сити Джефф Лукас во время летних каникул снял фильм ужасов вместо заданной ему документальной ленты. Во время просмотра фильма одноклассники и преподаватели жестоко высмеяли его кровавый «ужастик»... Очень скоро студенты и преподаватели начинают погибать один за другим. Причем убивают их теми самыми способами, которые продемонстрировал Джефф в своем фильме.




Качество: DVDRip
Формат: AVI
Видео: XviD; 688x528 (4:3); 1855 Kbps; 25 fps; 0,204 bpp
Аудио: AC3; 448 Kbps; CBR; 6 ch [Russian]













Общее
Формат: AVI
Формат/Информация: Audio Video Interleave
Размер файла: 1,46 Гбайт
Продолжительность: 1 ч. 30 м.
Общий поток: 2313 Кбит/сек
Программа кодирования: VirtualDubMod 1.5.10.3 | http://www.virtualdub-fr.org || (build 2550/release)
Библиотека кодирования: VirtualDubMod build 2550/release

Видео
Идентификатор: 0
Формат: MPEG-4 Visual
Профиль формата: Advanced Simple@L5
Параметр BVOP формата: 1
Параметр QPel формата: Нет
Параметр GMC формата: Без точки перехода
Параметр матрицы формата: Выборочная
Идентификатор кодека: XVID
Идентификатор кодека/Подсказка: XviD
Продолжительность: 1 ч. 30 м.
Битрейт: 1856 Кбит/сек
Ширина: 688 пикселей
Высота: 528 пикселей
Соотношение сторон: 4:3
Частота кадров: 25,000 кадров/сек
Цветовое пространство: YUV
Субдискретизация насыщенности: 4:2:0
Битовая глубина: 8 бит
Тип развёртки: Прогрессивная
Метод сжатия: С потерями
Бит/(Пиксели*Кадры): 0.204
Размер потока: 1,17 Гбайт (80%)
Библиотека кодирования: XviD 65

Аудио
Идентификатор: 1
Формат: AC-3
Формат/Информация: Audio Coding 3
Расширение режима: CM (complete main)
Идентификатор кодека: 2000
Продолжительность: 1 ч. 30 м.
Вид битрейта: Постоянный
Битрейт: 448 Кбит/сек
Каналы: 6 каналов
Расположение каналов: Front: L C R, Side: L R, LFE
Частота: 48,0 КГц
Битовая глубина: 16 бит
Метод сжатия: С потерями
Размер потока: 289 Мбайт (19%)
Выравнивание: Разделение по промежуткам
Продолжительность промежутка: 40мс. (1,00 видеокадр)
Время предзагрузки промежутка: 500мс.






реклама партнёра


Вернуться к началу
 Профиль Отправить личное сообщение  
 
   Похожие торренты   Автор   Торрент   Размер 
В этой теме нет новых непрочитанных сообщений. Трупы детям не игрушка / Children Shouldn't Play with Dead Things [ужасы, комедия, 1973] DVDRip, Avo

salma3

34 | 2

1.46 ГБ

В этой теме нет новых непрочитанных сообщений. Ходячие мертвецы / The Walking Dead [07x01 из 16] (Ужасы, драма, 2016) WEB-DLRip | КПК | LostFilm

marya111

0 | 0

243.74 МБ

В этой теме нет новых непрочитанных сообщений. Ходячие мертвецы / The Walking Dead [04х01-16 из 16] [Ужасы, триллер, драма, 2014] HDTVRip, avo

Dracon

35 | 15

7.44 ГБ

В этой теме нет новых непрочитанных сообщений. Ходячие мертвецы / The Walking Dead [S4] [Ужасы, триллер, драма, фантастика, 2013-2014] WEB-DL 720р, Mvo

Dracon

47 | 28

21.39 ГБ

В этой теме нет новых непрочитанных сообщений. Ходячие мертвецы / The Walking Dead / 5 сезон 1-16 серии из 16 [Ужасы, триллер, драма, 2014] WEB-DLRip, Mvo [FOX]

salma3

625 | 859

7.99 ГБ

В этой теме нет новых непрочитанных сообщений. Ходячие мертвецы / The Walking Dead [05x01-15 из 16] [Ужасы, триллер, драма, 2014] WEB-DL 720p, Mvo [Fox Crime]

Dracon

7 | 33

20.88 ГБ

В этой теме нет новых непрочитанных сообщений. Ходячие мертвецы / The Walking Dead [04х16] [Ужасы, триллер, драма, 2014] HDTVRip, Mvo [Fox Crime]

Dracon

22 | 2

501.69 МБ


Начать новую тему Ответить на тему  [ 1 сообщение ] 




Для Мосгорсуда, Роскомнадзора и рекламодателей:: mosgorsud-torrent[собачка]yandex.ru