Торрент файл
скачать торрент магнет ссылка Добавлен: 15 июн 2012, 16:40
Размер: 1.66 ГБ
Сидеров: 3
Личеров: 2
Статус: (Dracon)
Автор

СообщениеДобавлено: 15 июн 2012, 16:40 

Не в сети
Зам. Админа
Аватара пользователя
Дата регистрации:
02 дек 2010, 12:39
Спасибо: 12461 / 214
Сообщения: 27968


Страна: Швеция, Германия, Дания, Норвегия
Жанр:драма
Год выпуска: 2011
Продолжительность: 01:57:11

Перевод: Любительский (одноголосый закадровый) (Kenum)
Cубтитры: русские
Оригинальная аудиодорожка: шведский

Режиссер: Лиза Олин / Lisa Ohlin

В ролях: Билл Скарсгард, Хелен Сьёхольм, Ян Йозеф Лиферс, Стефан Годике, Карл Линнерторп, Юнатан С. Вехтер, Карл Мартин Эрикссон, Эрика Лёфгрен, Катарина Шюттлер, Йозефина Нельден, Лена Нюлен, Сесилия Нильссон и др.

Описание: Картина рассказывает о мальчике Симоне из гетеборгской рабочей семьи и его дружбе с еврейским мальчиком Исаком. Действие разворачивается во время Второй Мировой войны.
Экранизации одноименной повести шведской писательницы, автора книг для юношества Марианн Фредрикссон.



http://www.youtube.com/watch?v=3t-DRnni ... e=youtu.be - смотреть СЕМПЛозвучки на youtube
скачать СЕМПЛс multi-up

----------------------------------------------------------------------------------
Над релизом трудились:

Озвучка: Kenum (Владислав Данилов)

Работа со звуком: viruse (Виталий Емельянов)

Перевод: Илья Морозов
----------------------------------------------------------------------------------

Качество видео: DVDRip
Формат видео: AVI

Видео: 640x272 (2.35:1), 25 fps, XviD MPEG-4 ~1110 kbps avg, 0.26 bit/pixel
Аудио: 448 kHz, AC3 Dolby Digital, 3/2 (L,C,R,l,r) + LFE ch, ~448.00 kbps avg
Аудио 2: 48 kHz, AC3 Dolby Digital, 3/2 (L,C,R,l,r) + LFE ch, ~448.00 kbps avg
Формат субтитров: softsub (SRT)

D:ОЗВУЧКАГОТОВОЕВЛАДSimon_i_dybiSimon_i_dybi_2011_DVDRip_Kenum.avi
General
Complete name : D:ОЗВУЧКАГОТОВОЕВЛАДSimon_i_dybiSimon_i_dybi_2011_DVDRip_Kenum.avi
Format : AVI
Format/Info : Audio Video Interleave
File size : 1.66 GiB
Duration : 1h 57mn
Overall bit rate : 2 022 Kbps
Movie name : Simon och ekarna - Simon and the Oaks
Writing application : VirtualDubMod 1.5.10.2 (build 2540/release)
Writing library : VirtualDubMod build 2540/release
Video #0
ID : 0
Format : MPEG-4 Visual
Format profile : Advanced Simple@L5
Format settings, BVOP : 2
Format settings, QPel : No
Format settings, GMC : No warppoints
Format settings, Matrix : Default (H.263)
Muxing mode : Packed bitstream
Codec ID : XVID
Codec ID/Hint : XviD
Duration : 1h 57mn
Bit rate : 1 111 Kbps
Width : 640 pixels
Height : 272 pixels
Display aspect ratio : 2.35:1
Frame rate : 25.000 fps
Color space : YUV
Chroma subsampling : 4:2:0
Bit depth : 8 bits
Scan type : Progressive
Compression mode : Lossy
Bits/(Pixel*Frame) : 0.255
Stream size : 932 MiB (55%)
Writing library : XviD 64
Audio #1
ID : 1
Format : AC-3
Format/Info : Audio Coding 3
Mode extension : CM (complete main)
Codec ID : 2000
Duration : 1h 57mn
Bit rate mode : Constant
Bit rate : 448 Kbps
Channel(s) : 6 channels
Channel positions : Front: L C R, Side: L R, LFE
Sampling rate : 48.0 KHz
Bit depth : 16 bits
Compression mode : Lossy
Stream size : 375 MiB (22%)
Alignment : Split accross interleaves
Interleave, duration : 40 ms (1.00 video frame)
Interleave, preload duration : 500 ms
Audio #2
ID : 2
Format : AC-3
Format/Info : Audio Coding 3
Mode extension : CM (complete main)
Codec ID : 2000
Duration : 1h 57mn
Bit rate mode : Constant
Bit rate : 448 Kbps
Channel(s) : 6 channels
Channel positions : Front: L C R, Side: L R, LFE
Sampling rate : 48.0 KHz
Bit depth : 16 bits
Compression mode : Lossy
Stream size : 375 MiB (22%)
Alignment : Split accross interleaves
Interleave, duration : 40 ms (1.00 video frame)
Interleave, preload duration : 500 ms








реклама партнёра


Вернуться к началу
 Профиль  
 
   Похожие торренты   Автор   Торрент   Размер 
В этой теме нет новых непрочитанных сообщений. Симон и Малу / Simon & Malou (Тейс Мёльстрём Кристенсен, Лассе Спанг Ольсен) [2009, мелодрама, комедия, DVDRip] Sub

Nickolas3435

21 | 3

733.94 МБ

В этой теме нет новых непрочитанных сообщений. Красные дубы / Red Oaks [1 сезон: 1-10 серии из 10] [Комедия, 2014] WEBRip [BaibaKo]

Dracon

54 | 25

3.31 ГБ

В этой теме нет новых непрочитанных сообщений. Paul Simon - So Beautiful Or So What [2011, Rock, MP3]

PriZraK

0 | 1

87.83 МБ

В этой теме нет новых непрочитанных сообщений. Саймон Бирч / Simon Birch [драма, комедия, 1998] HDRip, Mvo

salma3

8 | 4

1.45 ГБ

В этой теме нет новых непрочитанных сообщений. Paul Simon - Over The Bridge Of Time (1964-2011) [2013, Folk, Rock, MP3]

PriZraK

0 | 3

135.28 МБ

В этой теме нет новых непрочитанных сообщений. Самые лучшие нарушения запретов #1 - Первые приключения / The Very Best Of Breaking Taboos #1 - Die ersten Abenteuer (Simon Thaur) [1999 г., BDSM, Exhibitionism, Public, Extreme, Bizarre, DVDRip]

max77777

2 | 2

2 ГБ

В этой теме нет новых непрочитанных сообщений. Paul Simon - Greatest Hits [2000, Folk-Rock, MP3]

PriZraK

2 | 1

176.56 МБ


Начать новую тему Ответить на тему  [ 1 сообщение ] 




Для Мосгорсуда, Роскомнадзора и рекламодателей:: mosgorsud-torrent[собачка]yandex.ru