Торрент файл
скачать торрент магнет ссылка Добавлен: 13 июн 2012, 14:33
Размер: 847.64 МБ
Сидеров: 3
Личеров: 3
Статус: (Dracon)
Автор

СообщениеДобавлено: 13 июн 2012, 14:33 

Не в сети
Зам. Админа
Аватара пользователя
Дата регистрации:
02 дек 2010, 12:39
Спасибо: 12461 / 214
Сообщения: 27968


Страна: Финляндия
Жанр:Комедия, драма
Год выпуска: 2011
Продолжительность: 01:20:07

Перевод: Любительский (одноголосый закадровый) (Kenum)
Cубтитры: русские
Оригинальная аудиодорожка: финский

Режиссер: Вилле Янкери / Ville Jankeri

В ролях: Юсси Никкиля, Юлерми Райямаа, Ээро Милонофф, Марьют Маристо, Tytti Junna, Ниило Сювяоя, Веера Таппер, Paavo Kinnunen, Heikki Alanko, Ванда Дубиель и др.

Описание: Фильм повествует об одном дне из жизни трех приятелей, живущих в самом сердце Хельсинки - районе Каллио. Главные герои - Маршал, Жира и Хеннинен - проводят все свое время в бесцельных блужданиях по паркам и скверам родного района, потягивая пиво и предаваясь созерцанию и бесконечным разговорам ни о чем, в то время как перед ними, как на сцене театра, разворачивается привычная картина городской жизни во всем своем рутинном разнообразии.
Фильм снят по роману Микко Римминена "Роман с пивом".


http://www.youtube.com/watch?v=u4DIC53m ... e=youtu.be - смотреть СЕМПЛозвучки на youtube
скачать СЕМПЛс multi-up

----------------------------------------------------------------------------------
Над релизом трудились:

Озвучка: Kenum (Владислав Данилов)

Работа со звуком: viruse (Виталий Емельянов)

Перевод: joaninspain
----------------------------------------------------------------------------------

Качество видео: DVDRip
Формат видео: AVI

Видео: 704x352 (2.00:1), 23.976 fps, XviD MPEG-4 ~1143 kbps avg, 0.19 bit/pixel
Аудио: 48 kHz, MPEG Layer 3, 2 ch, ~192.00 kbps avg
Аудио 2: 48 kHz, MPEG Layer 3, 2 ch, ~128.00 kbps avg
Формат субтитров: softsub (SRT)

D:ОЗВУЧКАГОТОВОЕFilm_s_pivomFilm_s_pivom.2011.DVDRip_Kenum.avi
General
Complete name : D:ОЗВУЧКАГОТОВОЕFilm_s_pivomFilm_s_pivom.2011.DVDRip_Kenum.avi
Format : AVI
Format/Info : Audio Video Interleave
File size : 848 MiB
Duration : 1h 20mn
Overall bit rate : 1 479 Kbps
Writing application : VirtualDubMod 1.5.10.2 (build 2540/release)
Writing library : VirtualDubMod build 2540/release
Video #0
ID : 0
Format : MPEG-4 Visual
Format profile : Advanced Simple@L5
Format settings, BVOP : 2
Format settings, QPel : No
Format settings, GMC : No warppoints
Format settings, Matrix : Default (H.263)
Muxing mode : Packed bitstream
Codec ID : XVID
Codec ID/Hint : XviD
Duration : 1h 20mn
Bit rate : 1 143 Kbps
Width : 704 pixels
Height : 352 pixels
Display aspect ratio : 2.000
Frame rate : 23.976 fps
Color space : YUV
Chroma subsampling : 4:2:0
Bit depth : 8 bits
Scan type : Progressive
Compression mode : Lossy
Bits/(Pixel*Frame) : 0.193
Stream size : 656 MiB (77%)
Writing library : XviD 64
Audio #1
ID : 1
Format : MPEG Audio
Format version : Version 1
Format profile : Layer 3
Codec ID : 55
Codec ID/Hint : MP3
Duration : 1h 20mn
Bit rate mode : Constant
Bit rate : 192 Kbps
Channel(s) : 2 channels
Sampling rate : 48.0 KHz
Compression mode : Lossy
Stream size : 110 MiB (13%)
Alignment : Aligned on interleaves
Interleave, duration : 42 ms (1.00 video frame)
Interleave, preload duration : 504 ms
Audio #2
ID : 2
Format : MPEG Audio
Format version : Version 1
Format profile : Layer 3
Mode : Joint stereo
Mode extension : MS Stereo
Codec ID : 55
Codec ID/Hint : MP3
Duration : 1h 20mn
Bit rate mode : Constant
Bit rate : 128 Kbps
Channel(s) : 2 channels
Sampling rate : 48.0 KHz
Compression mode : Lossy
Stream size : 73.4 MiB (9%)
Alignment : Aligned on interleaves
Interleave, duration : 42 ms (1.00 video frame)
Interleave, preload duration : 504 ms
Writing library : LAME3.97
Encoding settings : -m j -V 4 -q 2 -lowpass 17 -b 128








Внимание! Фильм содержит ненормативную лексику.




реклама партнёра


Вернуться к началу
 Профиль  
 
   Похожие торренты   Автор   Торрент   Размер 
В этой теме нет новых непрочитанных сообщений. С пивом [2014 г., Amateur, Web-Cam, CamRip]

friizze

4 | 4

225.21 МБ

В этой теме нет новых непрочитанных сообщений. Лего. Фильм / The Lego Movie [мультфильм, фэнтези, комедия, приключения, семейный, 2014] DVDRip, dub [Звук с TS]

Dracon

238 | 6

1.37 ГБ

В этой теме нет новых непрочитанных сообщений. В погоне за сокровищами / Aakhri Badla [боевик, драма, криминал, 1989] DVDRip, Dvo [Элегия фильм]

salma3

5 | 4

1.37 ГБ

В этой теме нет новых непрочитанных сообщений. Красные горы [01-12 из 12] (Игорь Зайцев) [Боевик, военный фильм, исторический фильм, 2013] WEB-DL 720p

Dracon

337 | 124

10.83 ГБ

В этой теме нет новых непрочитанных сообщений. Давай знакомиться. Фильм / Hello Ladies: The Movie (комедия) [2014г., комедия, HDTV 720p] avo

Alfredovich

77 | 5

2.77 ГБ

В этой теме нет новых непрочитанных сообщений. Карнавал по-нашему [1-2 из 2] [Комедия, музыкальный фильм, 2013] HDTVRip

iopuk60

0 | 2

1.08 ГБ

В этой теме нет новых непрочитанных сообщений. Надой (Дмитрий Парёнкин) [комедия, авторский фильм, 2015] WEB-DLRip

Dracon

340 | 5

698.22 МБ


Начать новую тему Ответить на тему  [ 1 сообщение ] 




Для Мосгорсуда, Роскомнадзора и рекламодателей:: mosgorsud-torrent[собачка]yandex.ru