Торрент файл
скачать торрент магнет ссылка Добавлен: 25 май 2012, 12:47
Размер: 1.65 ГБ
Сидеров: 1
Личеров: 2
Статус: (Dracon)
Автор

СообщениеДобавлено: 25 май 2012, 12:47 

Не в сети
Зам. Админа
Аватара пользователя
Дата регистрации:
02 дек 2010, 12:39
Спасибо: 12460 / 214
Сообщения: 27968


Страна: Швеция
Жанр:драма
Год выпуска: 2011
Продолжительность: 01:31:22

Перевод: Любительский (одноголосый закадровый) (Kenum)
Cубтитры: русские
Оригинальная аудиодорожка: шведский

Режиссер: Симон Кайзер / Simon Kaijser

В ролях: Astrid Assefa, Ларс-Эрик Беренетт, Ребека Инглунд, Ульф Фриберг, Anna Godenius, Анника Халлин, Ибен Йейле, Elin Nilsson Kers, Chatarina Larsson, Анки Лиден и др.

Описание: Трогательная история непреодолимой любви между двумя незнакомцами, связанных между собой одной трагедией, которая сказывается на их жизнях и отношениях. Когда Йохан и Анна встречаются на вокзале, связывающим столицу Стокгольм с идиллическим пригородом, где они и живут, они отправляются в опасное путешествие из страсти и лжи…



Озвучка: Kenum (Владислав Данилов)

Работа со звуком: viruse (Виталий Емельянов)

Перевод: by sonnyb



скачать СЕМПЛ

Качество видео: DVDRip
Формат видео: AVI

Видео:720x384 (1.88:1), 25 fps, XviD MPEG-4 ~1680 kbps avg, 0.24 bit/pixel
Аудио: 48 kHz, AC3 Dolby Digital, 3/2 (L,C,R,l,r) + LFE ch, ~448.00 kbps avg
Аудио 2: 48 kHz, AC3 Dolby Digital, 3/2 (L,C,R,l,r) + LFE ch, ~448.00 kbps avg
Формат субтитров: softsub (SRT)

General
Complete name: D:ОЗВУЧКАГОТОВОЕStockholm.OstraStockholm.Ostra.2011.(Kenum).avi
Format: AVI
Format/Info: Audio Video Interleave
File size: 1.65 GiB
Duration: 1h 31mn
Overall bit rate: 2 592 Kbps
Writing application: VirtualDubMod 1.5.10.2 (build 2540/release)
Writing library: VirtualDubMod build 2540/release

Video
ID: 0
Format: MPEG-4 Visual
Format profile: Advanced Simple@L5
Format settings, BVOP: 2
Format settings, QPel: No
Format settings, GMC: No warppoints
Format settings, Matrix: Default (H.263)
Muxing mode: Packed bitstream
Codec ID: XVID
Codec ID/Hint: XviD
Duration: 1h 31mn
Bit rate: 1 681 Kbps
Width: 720 pixels
Height: 384 pixels
Display aspect ratio: 1.85:1
Frame rate: 25.000 fps
Color space: YUV
Chroma subsampling: 4:2:0
Bit depth: 8 bits
Scan type: Progressive
Compression mode: Lossy
Bits/(Pixel*Frame): 0.243
Stream size: 1.07 GiB (65%)
Writing library: XviD 64

Audio #1
ID: 1
Format: AC-3
Format/Info: Audio Coding 3
Mode extension: CM (complete main)
Format settings, Endianness: Big
Codec ID: 2000
Duration: 1h 31mn
Bit rate mode: Constant
Bit rate: 448 Kbps
Channel(s): 6 channels
Channel positions: Front: L C R, Side: L R, LFE
Sampling rate: 48.0 KHz
Bit depth: 16 bits
Compression mode: Lossy
Stream size: 293 MiB (17%)
Alignment: Split accross interleaves
Interleave, duration: 40 ms (1.00 video frame)
Interleave, preload duration: 500 ms

Audio #2
ID: 2
Format: AC-3
Format/Info: Audio Coding 3
Mode extension: CM (complete main)
Format settings, Endianness: Big
Codec ID: 2000
Duration: 1h 31mn
Bit rate mode: Constant
Bit rate: 448 Kbps
Channel(s): 6 channels
Channel positions: Front: L C R, Side: L R, LFE
Sampling rate: 48.0 KHz
Bit depth: 16 bits
Compression mode: Lossy
Stream size: 293 MiB (17%)
Alignment: Split accross interleaves
Interleave, duration: 40 ms (1.00 video frame)
Interleave, preload duration: 500 ms







реклама партнёра


Вернуться к началу
 Профиль  
 
   Похожие торренты   Автор   Торрент   Размер 
В этой теме нет новых непрочитанных сообщений. Стокгольмские истории / Stockholm Stories (Карин Фален / Karin Fahlén) [2013г., драма, DVDRip] avo

Alfredovich

79 | 5

1.46 ГБ

В этой теме нет новых непрочитанных сообщений. Стокгольм, Пенсильвания / Stockholm, Pennsylvania [триллер, драма, 2015] WEBRip-AVC, Avo

salma3

21 | 26

1.52 ГБ

В этой теме нет новых непрочитанных сообщений. Стокгольм, Пенсильвания / Stockholm, Pennsylvania [триллер, драма, 2015] WEBRip, Avo

salma3

45 | 6

1.48 ГБ

В этой теме нет новых непрочитанных сообщений. Стокгольм, Пенсильвания / Stockholm, Pennsylvania [триллер, драма, 2015] WEBRip 720p, Avo

salma3

128 | 32

1.52 ГБ

В этой теме нет новых непрочитанных сообщений. Сборник - Топ 100 Восточная Музыка [2015, Pop, Dance, MP3]

Nickolas3435

362 | 18

1011.34 МБ

В этой теме нет новых непрочитанных сообщений. [MINDFUCK] - Stockholm Syndrome [2012, Metalcore, MP3]

PriZraK

0 | 1

90.09 МБ

В этой теме нет новых непрочитанных сообщений. W.E.T. - One Live In Stockholm (2CD) [2014, Melodic Hard Rock, MP3]

PriZraK

0 | 1

221.42 МБ


Начать новую тему Ответить на тему  [ 1 сообщение ] 




Для Мосгорсуда, Роскомнадзора и рекламодателей:: mosgorsud-torrent[собачка]yandex.ru