Торрент файл
скачать торрент магнет ссылка Добавлен: 20 май 2012, 14:39
Размер: 1.48 ГБ
Сидеров: 1298
Личеров: 40
Статус: (drink)
Автор

СообщениеДобавлено: 20 май 2012, 14:39 

Не в сети
Релизёр
Дата регистрации:
02 апр 2012, 20:33
Спасибо: 345 / 0
Сообщения: 1461
Шкала агрессии / The Aggression Scale


Перевод: Любительский (одноголосый), cубтитры: отсутствуют
Формат: HDRip, MKV, XviD, AC3
Страна: США
Жанр: боевик, триллер
Продолжительность: 01:25:16
Год выпуска: 2012

Режиссер: Стивен С. Миллер


В ролях: Бойд Кестнер, Дерек Мирс, Джейкоб Рейнольдс, Джозеф МакКелхир, Дэна Эшбрук, Лиза Ротонди, Райан Хартвиг, Рэй Уайз, Фаббианн Терез, Эбен Костбар

Описание: Босс мафии обнаруживает, что у него украли полмиллиона долларов и отправляет четырех наемных убийц отправить "сообщение" семьям похитителей. Однако в одном из домов гангстеры встречают подростка по имени Оуэн. Оуэн имеет склонность к насилию и умеет создавать смертельные ловушки...

Видео: 720 x 304 (2,35:1), 23.976 fps, XviD, Advanced Simple@L5, ~1 863 Kbps, 0.355 bit/pixel
Аудио #1: Русский: 48 kHz, AC3 , 2/0 (L,R) ch, ~ 192 kbps [Любительский (одноголосый)]
Аудио #2: Английский: 48 kHz, AC3 Dolby Digital, 3/2 (L,C,R,l,r) + LFE ch, ~ 384 kbps avg [Оригинал]
Доп. информация: Премьера (мир) 10 марта 2012
General
Unique ID: 217993375830247053278698782034621918416 (0xA3FFFF3CA25622AA8F65EADA09C86CD0)
Complete name: E:\The.Aggression.Scale.2012.BDRiP_OdinGolos.mkv
Format: Matroska
File size: 1.48 GiB
Duration: 1h 25mn
Overall bit rate: 2 489 Kbps
Encoded date: UTC 2012-05-04 09:49:00
Writing application: mkvmerge v5.5.0 ('Healer') built on Apr6 2012 21:43:24
Writing library: libebml v1.2.3 + libmatroska v1.3.0
Video
ID: 1
Format: MPEG-4 Visual
Format profile: Advanced Simple@L5
Format settings, BVOP: Yes
Format settings, QPel: No
Format settings, GMC: No warppoints
Format settings, Matrix: Default (H.263)
Codec ID: XVID
Codec ID/Hint: XviD
Duration: 1h 25mn
Bit rate: 1 863 Kbps
Width: 720 pixels
Height: 304 pixels
Display aspect ratio: 2.35:1
Frame rate: 23.976 fps
Color space: YUV
Chroma subsampling: 4:2:0
Bit depth: 8 bits
Scan type: Progressive
Compression mode: Lossy
Bits/(Pixel*Frame): 0.355
Stream size: 1.11 GiB (75%)
Writing library: XviD 1.2.1 (UTC 2008-12-04)
Audio #1
ID: 2
Format: MPEG Audio
Format version: Version 1
Format profile: Layer 3
Muxing mode: Header stripping
Codec ID: A_MPEG/L3
Codec ID/Hint: MP3
Duration: 1h 25mn
Bit rate mode: Constant
Bit rate: 192 Kbps
Channel(s): 2 channels
Sampling rate: 44.1 KHz
Compression mode: Lossy
Stream size: 117 MiB (8%)
Audio #2
ID: 3
Format: AC-3
Format/Info: Audio Coding 3
Mode extension: CM (complete main)
Muxing mode: Header stripping
Codec ID: A_AC3
Duration: 1h 25mn
Bit rate mode: Constant
Bit rate: 384 Kbps
Channel(s): 6 channels
Channel positions: Front: L C R, Side: L R, LFE
Sampling rate: 48.0 KHz
Bit depth: 16 bits
Compression mode: Lossy
Stream size: 234 MiB (15%)
Text
ID: 4
Format: UTF-8
Codec ID: S_TEXT/UTF8
Codec ID/Info: UTF-8 Plain Text












реклама партнёра


Вернуться к началу
 Профиль Отправить личное сообщение  
 
   Похожие торренты   Автор   Торрент   Размер 
В этой теме нет новых непрочитанных сообщений. Шкала агрессии / The Aggression Scale [боевик, триллер, криминал, 2012] BDRip, Dvo [НТВ+]

salma3

21 | 2

1.37 ГБ

В этой теме нет новых непрочитанных сообщений. Спасение (Расширенная версия) / Extraction (Unrated Cut) (Стивен С. Миллер) [Триллер, 2015] WEB-DL 720p, Dub [iTunes]

Dracon

2615 | 46

2.69 ГБ

В этой теме нет новых непрочитанных сообщений. Спасение (Расширенная версия) / Extraction (Unrated Cut) (Стивен С. Миллер) [Триллер, 2015] WEB-DLRip, Dub [iTunes]

Dracon

6686 | 409

1.37 ГБ

В этой теме нет новых непрочитанных сообщений. Принц / The Prince (Брайан А Миллер) [Боевик, Триллер, 2014] HDRip, Mvo [iTunes]

Dracon

252 | 16

1.37 ГБ

В этой теме нет новых непрочитанных сообщений. Добро пожаловать в рай  / Vice (Брайан А Миллер) [Фантастика, боевик, триллер, приключения, 2015] HDRip, dvo

Dracon

4 | 2

1.37 ГБ

В этой теме нет новых непрочитанных сообщений. Добро пожаловать в рай / Vice (Брайан А Миллер) [Фантастика, боевик, триллер, приключения, 2015] HDRip, Dub [iTunes]

Dracon

156 | 6

1.42 ГБ

В этой теме нет новых непрочитанных сообщений. Безумный Макс: Дорога ярости / Mad Max: Fury Road (Джордж Миллер) [фантастика, боевик, триллер, приключения, 2015] HDRip, Dub [iTunes]

Dracon

3233 | 102

1.46 ГБ


Начать новую тему Ответить на тему  [ 1 сообщение ] 




Для Мосгорсуда, Роскомнадзора и рекламодателей:: mosgorsud-torrent[собачка]yandex.ru