Торрент файл
скачать торрент магнет ссылка Добавлен: 10 май 2012, 10:34
Размер: 1.73 ГБ
Сидеров: 13
Личеров: 6
Статус: (Dracon)
Автор

СообщениеДобавлено: 10 май 2012, 10:34 

Не в сети
Зам. Админа
Аватара пользователя
Дата регистрации:
02 дек 2010, 12:39
Спасибо: 12461 / 214
Сообщения: 27968
Страна: США
Жанр
: триллер, криминал, детектив
Год выпуска: 2012
Продолжительность
: 01:25:54
Перевод
: Одноголосый закадровый [Сергей Фурман] по субтитрам kato_rapture + Оригинальная дорожка (английский) отдельно
Субтитры
: русские kato_rapture + английские внешние отдельно

Режиссер: Джордж Галло / George Gallo

В ролях: Сэльма Блэр, Эми Смарт, Джейсон Ли, Джованни Рибизи, Кевин Поллак, Бо Бриджес, Джейсон Антун, Джерри Пенаколи, Роберт Гийом, Сэмм Ливайн и др.

Описание
: Нелюдимая и одинокая наследница крупного состояния, которая не покидает квартиры на Манхэттене уже два десятка лет, общается только с двумя людьми: через записки с консьержем своего дома и с доктором Реймондом Фонтейном, старинным другом ее семьи и поверенным во всех ее делах.

Однако, героине приходится столкнуться со своими страхами, когда полицейский детектив начинает расследование убийства, произошедшего в квартире напротив, а странная супружеская пара въезжают в эту квартиру.

Доп. информация: Коламбус-серкл - крупная площадь в центре Нью-Йорка, расположенная на пересечении трех улиц: Пятьдесят девятой, Восьмой авеню и Бродвея. В честь 400-летия США на этой площади была установлена колонна с бюстом Колумба.



Качество
: HDRip [BDRip 1080p]
Формат
: AVI
Видео
: 720x304 (2.37:1), 23.976 fps, XviD build 64 ~1969 kbps avg, 0.38 bit/pixel
Аудио #1: 48 kHz, AC3 Dolby Digital, 3/2 (L,C,R,l,r) + LFE ch, ~448.00 kbps avg rus
Аудио #2: 48 kHz, AC3 Dolby Digital, 3/2 (L,C,R,l,r) + LFE ch, ~448.00 kbps avg eng

Примечание
: Сведение русской дороги AMAPAHT.





Общее
Полное имя : Ploschad'.Kolumba.2012.HDRip.XviD.AC3.rus.AVO.avi
Формат : AVI
Формат/Информация : Audio Video Interleave
Размер файла : 1,46 Гбайт
Продолжительность : 1 ч. 25 м.
Общий поток : 2427 Кбит/сек
Название фильма : Columbus Circle
Режиссёр : George Gallo
Жанр : Thriller
Программа кодирования : VirtualDubMod 1.5.10.2 (build 2540/release)
Формат оригинала/Имя : Movie

Видео
Идентификатор : 0
Формат : MPEG-4 Visual
Профиль формата : Advanced Simple@L5
Параметр BVOP формата : 1
Параметр QPel формата : Нет
Параметр GMC формата : Без точки перехода
Параметр матрицы формата : Выборочная
Идентификатор кодека : XVID
Идентификатор кодека/Подсказка : XviD
Продолжительность : 1 ч. 25 м.
Битрейт : 1970 Кбит/сек
Ширина : 720 пикселей
Высота : 304 пикселя
Соотношение сторон : 2,35:1
Частота кадров : 23,976 кадра/сек
Цветовое пространство : YUV
Субдискретизация насыщенности : 4:2:0
Битовая глубина : 8 бит
Тип развёртки : Прогрессивная
Метод сжатия : С потерями
Бит/(Пиксели*Кадры) : 0.375
Размер потока : 1,18 Гбайт (81%)
Библиотека кодирования : XviD 64

Аудио
Идентификатор : 1
Формат : AC-3
Формат/Информация : Audio Coding 3
Расширение режима : CM (complete main)
Параметр Endianness формата : Big
Идентификатор кодека : 2000
Продолжительность : 1 ч. 25 м.
Вид битрейта : Постоянный
Битрейт : 448 Кбит/сек
Каналы : 6 каналов
Расположение каналов : Front: L C R, Side: L R, LFE
Частота : 48,0 КГц
Битовая глубина : 16 бит
Метод сжатия : С потерями
Размер потока : 275 Мбайт (18%)
Выравнивание : Разделение по промежуткам
Продолжительность промежутка : 42 мс. (1,00 видеокадр)
Время предзагрузки промежутка : 500 мс.






реклама партнёра


Вернуться к началу
 Профиль  
 
   Похожие торренты   Автор   Торрент   Размер 
В этой теме нет новых непрочитанных сообщений. День Колумба / Columbus Day [Криминальный триллер, 2008] Blu-Ray 1080p, Mvo

salma3

34 | 31

19.83 ГБ

В этой теме нет новых непрочитанных сообщений. Circle II Circle - Full Circle - The Best Of (Compilation) [2012, Progressive Heavy Metal, MP3]

PriZraK

0 | 1

322.68 МБ

В этой теме нет новых непрочитанных сообщений. Площадь пяти лун / Piazza delle cinque lune [детектив, триллер, 2003] DVDRip, Mvo

salma3

84 | 5

2.18 ГБ

В этой теме нет новых непрочитанных сообщений. Разорванный круг / The Broken Circle Breakdown [драма, 2012] HDRip, Mvo [Чистый звук]

Dracon

323 | 12

1.46 ГБ

В этой теме нет новых непрочитанных сообщений. Разомкнутый круг / The Broken Circle Breakdown (Феликс Ван Гроенгинен) [2012, драма, мелодрама, HDRip] mvo

Nickolas3435

22 | 4

744.9 МБ

В этой теме нет новых непрочитанных сообщений. Круг / Circle (Аарон Ханн, Марио Мисионе) [2015, ужасы, фантастика, триллер, драма, HDRip] avo

Nickolas3435

44 | 4

898.95 МБ

В этой теме нет новых непрочитанных сообщений. Разомкнутый круг / Разорванный круг / The Broken Circle Breakdown [драма, 2012] HDRip, Mvo [Лицензия]

Dracon

474 | 30

2.05 ГБ


Начать новую тему Ответить на тему  [ 1 сообщение ] 




Для Мосгорсуда, Роскомнадзора и рекламодателей:: mosgorsud-torrent[собачка]yandex.ru